  0
SECTION
  2
HEADER
  9
$ACADVER
  1
AC1015
  9
$ACADMAINTVER
 70
    20
  9
$DWGCODEPAGE
  3
ANSI_932
  9
$INSBASE
 10
0.0
 20
0.0
 30
0.0
  9
$EXTMIN
 10
-562.1624253797872
 20
-742.1358832910518
 30
-0.000000000000013
  9
$EXTMAX
 10
487.0556692309728
 20
742.0436747137919
 30
0.0000000000000023
  9
$LIMMIN
 10
0.0
 20
0.0
  9
$LIMMAX
 10
2100.0
 20
1485.0
  9
$ORTHOMODE
 70
     0
  9
$REGENMODE
 70
     1
  9
$FILLMODE
 70
     1
  9
$QTEXTMODE
 70
     0
  9
$MIRRTEXT
 70
     0
  9
$LTSCALE
 40
25.0
  9
$ATTMODE
 70
     1
  9
$TEXTSIZE
 40
15.0
  9
$TRACEWID
 40
1.0
  9
$TEXTSTYLE
  7
BIGFONT
  9
$CLAYER
  8
BALN
  9
$CELTYPE
  6
BYLAYER
  9
$CECOLOR
 62
     4
  9
$CELTSCALE
 40
1.0
  9
$DISPSILH
 70
     0
  9
$DIMSCALE
 40
5.0
  9
$DIMASZ
 40
1.5
  9
$DIMEXO
 40
0.0
  9
$DIMDLI
 40
6.0
  9
$DIMRND
 40
0.0
  9
$DIMDLE
 40
0.0
  9
$DIMEXE
 40
2.0
  9
$DIMTP
 40
495.0
  9
$DIMTM
 40
0.0
  9
$DIMTXT
 40
3.0
  9
$DIMCEN
 40
0.0
  9
$DIMTSZ
 40
0.0
  9
$DIMTOL
 70
     0
  9
$DIMLIM
 70
     0
  9
$DIMTIH
 70
     0
  9
$DIMTOH
 70
     0
  9
$DIMSE1
 70
     0
  9
$DIMSE2
 70
     0
  9
$DIMTAD
 70
     3
  9
$DIMZIN
 70
     8
  9
$DIMBLK
  1
OPEN
  9
$DIMASO
 70
     1
  9
$DIMSHO
 70
     1
  9
$DIMPOST
  1

  9
$DIMAPOST
  1

  9
$DIMALT
 70
     0
  9
$DIMALTD
 70
     2
  9
$DIMALTF
 40
25.4
  9
$DIMLFAC
 40
1.0
  9
$DIMTOFL
 70
     1
  9
$DIMTVP
 40
0.0
  9
$DIMTIX
 70
     0
  9
$DIMSOXD
 70
     0
  9
$DIMSAH
 70
     0
  9
$DIMBLK1
  1
OPEN
  9
$DIMBLK2
  1
OPEN
  9
$DIMSTYLE
  2
ITM
  9
$DIMCLRD
 70
     4
  9
$DIMCLRE
 70
     4
  9
$DIMCLRT
 70
   256
  9
$DIMTFAC
 40
1.0
  9
$DIMGAP
 40
0.6
  9
$DIMJUST
 70
     0
  9
$DIMSD1
 70
     0
  9
$DIMSD2
 70
     0
  9
$DIMTOLJ
 70
     0
  9
$DIMTZIN
 70
     8
  9
$DIMALTZ
 70
     0
  9
$DIMALTTZ
 70
     0
  9
$DIMUPT
 70
     1
  9
$DIMDEC
 70
     8
  9
$DIMTDEC
 70
     3
  9
$DIMALTU
 70
     2
  9
$DIMALTTD
 70
     2
  9
$DIMTXSTY
  7
BIGFONT
  9
$DIMAUNIT
 70
     0
  9
$DIMADEC
 70
     8
  9
$DIMALTRND
 40
0.0
  9
$DIMAZIN
 70
     2
  9
$DIMDSEP
 70
    46
  9
$DIMATFIT
 70
     3
  9
$DIMFRAC
 70
     0
  9
$DIMLDRBLK
  1
OPEN
  9
$DIMLUNIT
 70
     2
  9
$DIMLWD
 70
    -2
  9
$DIMLWE
 70
    -2
  9
$DIMTMOVE
 70
     0
  9
$LUNITS
 70
     2
  9
$LUPREC
 70
     8
  9
$SKETCHINC
 40
1.0
  9
$FILLETRAD
 40
0.9
  9
$AUNITS
 70
     0
  9
$AUPREC
 70
     8
  9
$MENU
  1
.
  9
$ELEVATION
 40
0.0
  9
$PELEVATION
 40
0.0
  9
$THICKNESS
 40
0.0
  9
$LIMCHECK
 70
     0
  9
$CHAMFERA
 40
10.0
  9
$CHAMFERB
 40
10.0
  9
$CHAMFERC
 40
0.0
  9
$CHAMFERD
 40
0.0
  9
$SKPOLY
 70
     0
  9
$TDCREATE
 40
2457175.427189722
  9
$TDUCREATE
 40
2457175.052189722
  9
$TDUPDATE
 40
2458212.721033298
  9
$TDUUPDATE
 40
2458212.346033298
  9
$TDINDWG
 40
0.6432822454
  9
$TDUSRTIMER
 40
0.6432820833
  9
$USRTIMER
 70
     1
  9
$ANGBASE
 50
0.0
  9
$ANGDIR
 70
     0
  9
$PDMODE
 70
     0
  9
$PDSIZE
 40
0.0
  9
$PLINEWID
 40
0.0
  9
$SPLFRAME
 70
     0
  9
$SPLINETYPE
 70
     6
  9
$SPLINESEGS
 70
     8
  9
$HANDSEED
  5
4C1E
  9
$SURFTAB1
 70
     6
  9
$SURFTAB2
 70
     6
  9
$SURFTYPE
 70
     6
  9
$SURFU
 70
     6
  9
$SURFV
 70
     6
  9
$UCSBASE
  2

  9
$UCSNAME
  2

  9
$UCSORG
 10
0.0
 20
0.0
 30
0.0
  9
$UCSXDIR
 10
1.0
 20
0.0
 30
0.0
  9
$UCSYDIR
 10
0.0
 20
1.0
 30
0.0
  9
$UCSORTHOREF
  2

  9
$UCSORTHOVIEW
 70
     0
  9
$UCSORGTOP
 10
0.0
 20
0.0
 30
0.0
  9
$UCSORGBOTTOM
 10
0.0
 20
0.0
 30
0.0
  9
$UCSORGLEFT
 10
0.0
 20
0.0
 30
0.0
  9
$UCSORGRIGHT
 10
0.0
 20
0.0
 30
0.0
  9
$UCSORGFRONT
 10
0.0
 20
0.0
 30
0.0
  9
$UCSORGBACK
 10
0.0
 20
0.0
 30
0.0
  9
$PUCSBASE
  2

  9
$PUCSNAME
  2

  9
$PUCSORG
 10
0.0
 20
0.0
 30
0.0
  9
$PUCSXDIR
 10
1.0
 20
0.0
 30
0.0
  9
$PUCSYDIR
 10
0.0
 20
1.0
 30
0.0
  9
$PUCSORTHOREF
  2

  9
$PUCSORTHOVIEW
 70
     0
  9
$PUCSORGTOP
 10
0.0
 20
0.0
 30
0.0
  9
$PUCSORGBOTTOM
 10
0.0
 20
0.0
 30
0.0
  9
$PUCSORGLEFT
 10
0.0
 20
0.0
 30
0.0
  9
$PUCSORGRIGHT
 10
0.0
 20
0.0
 30
0.0
  9
$PUCSORGFRONT
 10
0.0
 20
0.0
 30
0.0
  9
$PUCSORGBACK
 10
0.0
 20
0.0
 30
0.0
  9
$USERI1
 70
     3
  9
$USERI2
 70
     1
  9
$USERI3
 70
     5
  9
$USERI4
 70
     2
  9
$USERI5
 70
     0
  9
$USERR1
 40
5.0
  9
$USERR2
 40
3.0
  9
$USERR3
 40
3.0
  9
$USERR4
 40
1.5
  9
$USERR5
 40
8.0
  9
$WORLDVIEW
 70
     1
  9
$SHADEDGE
 70
     3
  9
$SHADEDIF
 70
    70
  9
$TILEMODE
 70
     1
  9
$MAXACTVP
 70
    16
  9
$PINSBASE
 10
0.0
 20
0.0
 30
0.0
  9
$PLIMCHECK
 70
     0
  9
$PEXTMIN
 10
1.000000000000000E+20
 20
1.000000000000000E+20
 30
1.000000000000000E+20
  9
$PEXTMAX
 10
-1.000000000000000E+20
 20
-1.000000000000000E+20
 30
-1.000000000000000E+20
  9
$PLIMMIN
 10
0.0
 20
0.0
  9
$PLIMMAX
 10
420.0
 20
297.0
  9
$UNITMODE
 70
     0
  9
$VISRETAIN
 70
     0
  9
$PLINEGEN
 70
     0
  9
$PSLTSCALE
 70
     1
  9
$TREEDEPTH
 70
     0
  9
$CMLSTYLE
  2
STANDARD
  9
$CMLJUST
 70
     0
  9
$CMLSCALE
 40
1.0
  9
$PROXYGRAPHICS
 70
     1
  9
$MEASUREMENT
 70
     1
  9
$CELWEIGHT
370
    -1
  9
$ENDCAPS
280
     0
  9
$JOINSTYLE
280
     0
  9
$LWDISPLAY
290
     0
  9
$INSUNITS
 70
     0
  9
$HYPERLINKBASE
  1

  9
$STYLESHEET
  1
monochrome.ctb
  9
$XEDIT
290
     1
  9
$CEPSNTYPE
380
     0
  9
$PSTYLEMODE
290
     1
  9
$FINGERPRINTGUID
  2
{969A4899-1906-4D4C-9BC5-EFB286F67218}
  9
$VERSIONGUID
  2
{8186BDF2-5292-4042-9F44-9B6653F6FC38}
  9
$EXTNAMES
290
     1
  9
$PSVPSCALE
 40
0.0
  9
$OLESTARTUP
290
     0
  0
ENDSEC
  0
SECTION
  2
CLASSES
  0
CLASS
  1
ACDBDICTIONARYWDFLT
  2
AcDbDictionaryWithDefault
  3
ObjectDBX Classes
 90
        0
280
     0
281
     0
  0
CLASS
  1
ACDBPLACEHOLDER
  2
AcDbPlaceHolder
  3
ObjectDBX Classes
 90
        0
280
     0
281
     0
  0
CLASS
  1
LAYOUT
  2
AcDbLayout
  3
ObjectDBX Classes
 90
        0
280
     0
281
     0
  0
CLASS
  1
TABLESTYLE
  2
AcDbTableStyle
  3
ObjectDBX Classes
 90
     4095
280
     0
281
     0
  0
CLASS
  1
DICTIONARYVAR
  2
AcDbDictionaryVar
  3
ObjectDBX Classes
 90
        0
280
     0
281
     0
  0
CLASS
  1
MATERIAL
  2
AcDbMaterial
  3
ObjectDBX Classes
 90
     1153
280
     0
281
     0
  0
CLASS
  1
VISUALSTYLE
  2
AcDbVisualStyle
  3
ObjectDBX Classes
 90
     4095
280
     0
281
     0
  0
CLASS
  1
SCALE
  2
AcDbScale
  3
ObjectDBX Classes
 90
     1153
280
     0
281
     0
  0
CLASS
  1
MLEADERSTYLE
  2
AcDbMLeaderStyle
  3
ACDB_MLEADERSTYLE_CLASS
 90
     4095
280
     0
281
     0
  0
CLASS
  1
CELLSTYLEMAP
  2
AcDbCellStyleMap
  3
ObjectDBX Classes
 90
     1152
280
     0
281
     0
  0
CLASS
  1
ACDBSECTIONVIEWSTYLE
  2
AcDbSectionViewStyle
  3
ObjectDBX Classes
 90
     1025
280
     0
281
     0
  0
CLASS
  1
ACDBDETAILVIEWSTYLE
  2
AcDbDetailViewStyle
  3
ObjectDBX Classes
 90
     1025
280
     0
281
     0
  0
CLASS
  1
EXACXREFPANELOBJECT
  2
ExAcXREFPanelObject
  3
EXAC_ESW
 90
    33793
280
     0
281
     0
  0
CLASS
  1
NPOCOLLECTION
  2
AcDbImpNonPersistentObjectsCollection
  3
ObjectDBX Classes
 90
    33921
280
     0
281
     0
  0
CLASS
  1
SORTENTSTABLE
  2
AcDbSortentsTable
  3
ObjectDBX Classes
 90
        0
280
     0
281
     0
  0
CLASS
  1
SOLID_BACKGROUND
  2
AcDbSolidBackground
  3
SCENEOE
 90
    36863
280
     0
281
     0
  0
CLASS
  1
GROUND_PLANE_BACKGROUND
  2
AcDbGroundPlaneBackground
  3
SCENEOE
 90
    36863
280
     0
281
     0
  0
CLASS
  1
MULTILEADER
  2
AcDbMLeader
  3
ACDB_MLEADER_CLASS
 90
    33793
280
     0
281
     1
  0
ENDSEC
  0
SECTION
  2
TABLES
  0
TABLE
  2
VPORT
  5
8
330
0
100
AcDbSymbolTable
 70
     1
  0
VPORT
  5
55B
330
8
100
AcDbSymbolTableRecord
100
AcDbViewportTableRecord
  2
*Active
 70
     0
 10
0.0
 20
0.0
 11
1.0
 21
1.0
 12
-37.55337807440719
 22
-0.0461042886299765
 13
0.0
 23
0.0
 14
10.0
 24
10.0
 15
10.0
 25
10.0
 16
0.0
 26
0.0
 36
1.0
 17
0.0
 27
0.0
 37
0.0
 40
1496.278847879883
 41
1.484353741496598
 42
50.0
 43
0.0
 44
0.0
 50
0.0
 51
0.0
 71
     0
 72
  1000
 73
     1
 74
     1
 75
     1
 76
     0
 77
     0
 78
     0
281
     0
 65
     1
110
0.0
120
0.0
130
0.0
111
1.0
121
0.0
131
0.0
112
0.0
122
1.0
132
0.0
 79
     0
146
0.0
1001
ACAD_NAV_VCDISPLAY
1070
     3
  0
ENDTAB
  0
TABLE
  2
LTYPE
  5
5
330
0
100
AcDbSymbolTable
 70
    18
  0
LTYPE
  5
14
330
5
100
AcDbSymbolTableRecord
100
AcDbLinetypeTableRecord
  2
BYBLOCK
 70
     0
  3

 72
    65
 73
     0
 40
0.0
  0
LTYPE
  5
15
330
5
100
AcDbSymbolTableRecord
100
AcDbLinetypeTableRecord
  2
BYLAYER
 70
     0
  3

 72
    65
 73
     0
 40
0.0
  0
LTYPE
  5
16
330
5
100
AcDbSymbolTableRecord
100
AcDbLinetypeTableRecord
  2
CONTINUOUS
 70
     0
  3
Solid line
 72
    65
 73
     0
 40
0.0
  0
LTYPE
  5
55
330
5
100
AcDbSymbolTableRecord
100
AcDbLinetypeTableRecord
  2
DASHED
 70
     0
  3
__ __ __ __ __ __ __ __ __ __ __ __ __ __ __
 72
    65
 73
     2
 40
0.75
 49
0.5
 74
     0
 49
-0.25
 74
     0
  0
LTYPE
  5
56
330
5
100
AcDbSymbolTableRecord
100
AcDbLinetypeTableRecord
  2
CENTER
 70
     0
  3
____ _ ____ _ ____ _ ____ _ ____ _ ____ _ ____
 72
    65
 73
     4
 40
2.0
 49
1.25
 74
     0
 49
-0.25
 74
     0
 49
0.25
 74
     0
 49
-0.25
 74
     0
  0
LTYPE
  5
57
330
5
100
AcDbSymbolTableRecord
100
AcDbLinetypeTableRecord
  2
PHANTOM
 70
     0
  3
_____ _ _ _____ _ _ _____ _ _ _____ _ _ ____
 72
    65
 73
     6
 40
2.5
 49
1.25
 74
     0
 49
-0.25
 74
     0
 49
0.25
 74
     0
 49
-0.25
 74
     0
 49
0.25
 74
     0
 49
-0.25
 74
     0
  0
LTYPE
  5
58
330
5
100
AcDbSymbolTableRecord
100
AcDbLinetypeTableRecord
  2
HIDDEN
 70
     0
  3
_ _ _ _ _ _ _ _ _ _ _ _ _ _ _ _ _ _ _ _ _ _ _
 72
    65
 73
     2
 40
0.375
 49
0.25
 74
     0
 49
-0.125
 74
     0
  0
LTYPE
  5
440
330
5
100
AcDbSymbolTableRecord
100
AcDbLinetypeTableRecord
  2
CONTINUOUS-S
 70
     0
  3
Solid line
 72
    65
 73
     0
 40
0.0
  0
LTYPE
  5
441
330
5
100
AcDbSymbolTableRecord
100
AcDbLinetypeTableRecord
  2
CONTINUOUS-F
 70
     0
  3
Solid line
 72
    65
 73
     0
 40
0.0
  0
LTYPE
  5
442
330
5
100
AcDbSymbolTableRecord
100
AcDbLinetypeTableRecord
  2
CENTER-F
 70
     0
  3
____ _ ____ _ ____ _ ____ _ ____ _ ____ _ ____
 72
    65
 73
     4
 40
2.0
 49
1.25
 74
     0
 49
-0.25
 74
     0
 49
0.25
 74
     0
 49
-0.25
 74
     0
  0
LTYPE
  5
443
330
5
100
AcDbSymbolTableRecord
100
AcDbLinetypeTableRecord
  2
PHANTOM-F
 70
     0
  3
_____ _ _ _____ _ _ _____ _ _ _____ _ _ ____
 72
    65
 73
     6
 40
2.5
 49
1.25
 74
     0
 49
-0.25
 74
     0
 49
0.25
 74
     0
 49
-0.25
 74
     0
 49
0.25
 74
     0
 49
-0.25
 74
     0
  0
LTYPE
  5
444
330
5
100
AcDbSymbolTableRecord
100
AcDbLinetypeTableRecord
  2
DASHED-F
 70
     0
  3
__ __ __ __ __ __ __ __ __ __ __ __ __ __ __
 72
    65
 73
     2
 40
0.75
 49
0.5
 74
     0
 49
-0.25
 74
     0
  0
LTYPE
  5
445
330
5
100
AcDbSymbolTableRecord
100
AcDbLinetypeTableRecord
  2
CONTINUOUS-C
 70
     0
  3
Solid line
 72
    65
 73
     0
 40
0.0
  0
LTYPE
  5
446
330
5
100
AcDbSymbolTableRecord
100
AcDbLinetypeTableRecord
  2
CENTER-C
 70
     0
  3
____ _ ____ _ ____ _ ____ _ ____ _ ____ _ ____
 72
    65
 73
     4
 40
2.0
 49
1.25
 74
     0
 49
-0.25
 74
     0
 49
0.25
 74
     0
 49
-0.25
 74
     0
  0
LTYPE
  5
447
330
5
100
AcDbSymbolTableRecord
100
AcDbLinetypeTableRecord
  2
PHANTOM-C
 70
     0
  3
_____ _ _ _____ _ _ _____ _ _ _____ _ _ ____
 72
    65
 73
     6
 40
2.5
 49
1.25
 74
     0
 49
-0.25
 74
     0
 49
0.25
 74
     0
 49
-0.25
 74
     0
 49
0.25
 74
     0
 49
-0.25
 74
     0
  0
LTYPE
  5
448
330
5
100
AcDbSymbolTableRecord
100
AcDbLinetypeTableRecord
  2
DASHED-C
 70
     0
  3
__ __ __ __ __ __ __ __ __ __ __ __ __ __ __
 72
    65
 73
     2
 40
0.75
 49
0.5
 74
     0
 49
-0.25
 74
     0
  0
LTYPE
  5
449
330
5
100
AcDbSymbolTableRecord
100
AcDbLinetypeTableRecord
  2
CENTER-S
 70
     0
  3
____ _ ____ _ ____ _ ____ _ ____ _ ____ _ ____
 72
    65
 73
     4
 40
2.0
 49
1.25
 74
     0
 49
-0.25
 74
     0
 49
0.25
 74
     0
 49
-0.25
 74
     0
  0
LTYPE
  5
44A
330
5
100
AcDbSymbolTableRecord
100
AcDbLinetypeTableRecord
  2
PHANTOM-S
 70
     0
  3
_____ _ _ _____ _ _ _____ _ _ _____ _ _ ____
 72
    65
 73
     6
 40
2.5
 49
1.25
 74
     0
 49
-0.25
 74
     0
 49
0.25
 74
     0
 49
-0.25
 74
     0
 49
0.25
 74
     0
 49
-0.25
 74
     0
  0
LTYPE
  5
44B
330
5
100
AcDbSymbolTableRecord
100
AcDbLinetypeTableRecord
  2
DASHED-S
 70
     0
  3
__ __ __ __ __ __ __ __ __ __ __ __ __ __ __
 72
    65
 73
     2
 40
0.75
 49
0.5
 74
     0
 49
-0.25
 74
     0
  0
LTYPE
  5
472C
330
5
100
AcDbSymbolTableRecord
100
AcDbLinetypeTableRecord
  2
CENTER2
 70
     0
  3
___ _ ___ _ ___ _ ___ _ ___ _ ___ _ ___ _ ___ _
 72
    65
 73
     4
 40
1.125
 49
0.75
 74
     0
 49
-0.125
 74
     0
 49
0.125
 74
     0
 49
-0.125
 74
     0
  0
ENDTAB
  0
TABLE
  2
LAYER
  5
2
102
{ACAD_XDICTIONARY
360
60C
102
}
330
0
100
AcDbSymbolTable
 70
     4
  0
LAYER
  5
F
102
{ACAD_XDICTIONARY
360
5D5
102
}
330
2
100
AcDbSymbolTableRecord
100
AcDbLayerTableRecord
  2
0
 70
     4
 62
     7
  6
CONTINUOUS
370
    -3
390
4BB
  0
LAYER
  5
42B
330
2
100
AcDbSymbolTableRecord
100
AcDbLayerTableRecord
  2
DEFPOINTS
 70
     4
 62
     7
  6
CONTINUOUS
290
     0
370
    -3
390
4BB
  0
LAYER
  5
44C
102
{ACAD_XDICTIONARY
360
5D7
102
}
330
2
100
AcDbSymbolTableRecord
100
AcDbLayerTableRecord
  2
BALN
 70
     0
 62
     7
  6
CONTINUOUS
370
    -3
390
4BB
1001
LAYTOOL
1070
     1
  0
LAYER
  5
4731
102
{ACAD_XDICTIONARY
360
4732
102
}
330
2
100
AcDbSymbolTableRecord
100
AcDbLayerTableRecord
  2
422025
 70
     0
 62
     2
  6
CONTINUOUS
370
    -3
390
4BB
  0
ENDTAB
  0
TABLE
  2
STYLE
  5
3
330
0
100
AcDbSymbolTable
 70
     7
  0
STYLE
  5
10
330
3
100
AcDbSymbolTableRecord
100
AcDbTextStyleTableRecord
  2
STANDARD
 70
     0
 40
0.0
 41
0.833
 50
0.0
 71
     0
 42
2.5
  3
ROMANS.shx
  4
bigfont.shx
  0
STYLE
  5
232
330
3
100
AcDbSymbolTableRecord
100
AcDbTextStyleTableRecord
  2

 70
     1
 40
0.0
 41
1.0
 50
0.0
 71
     0
 42
2.5
  3
ltypeshp.shx
  4

  0
STYLE
  5
2CC
330
3
100
AcDbSymbolTableRecord
100
AcDbTextStyleTableRecord
  2
BIGFONT
 70
     0
 40
0.0
 41
0.833
 50
0.0
 71
     0
 42
15.0
  3
ROMANS.shx
  4
bigfont.shx
  0
STYLE
  5
2E0
330
3
100
AcDbSymbolTableRecord
100
AcDbTextStyleTableRecord
  2
K
 70
     0
 40
0.0
 41
0.833
 50
0.0
 71
     0
 42
3.0
  3
ROMANS.shx
  4
bigfont.shx
  0
STYLE
  5
42C
330
3
100
AcDbSymbolTableRecord
100
AcDbTextStyleTableRecord
  2
MS-Pゴシック
 70
     0
 40
0.0
 41
1.0
 50
0.0
 71
     0
 42
3.0
  3

  4

1001
ACAD
1000
@MS PGothic
1071
    32818
  0
STYLE
  5
44D
330
3
100
AcDbSymbolTableRecord
100
AcDbTextStyleTableRecord
  2
TSTANDARD
 70
     4
 40
0.0
 41
0.833
 50
0.0
 71
     0
 42
5.0
  3
ROMANS
  4
BIGFONT
  0
STYLE
  5
44E
330
3
100
AcDbSymbolTableRecord
100
AcDbTextStyleTableRecord
  2
TBIGFONT
 70
     4
 40
0.0
 41
0.833
 50
0.0
 71
     0
 42
5.0
  3
ROMANS
  4
BIGFONT
  0
ENDTAB
  0
TABLE
  2
VIEW
  5
6
330
0
100
AcDbSymbolTable
 70
     0
  0
ENDTAB
  0
TABLE
  2
UCS
  5
7
330
0
100
AcDbSymbolTable
 70
     0
  0
ENDTAB
  0
TABLE
  2
APPID
  5
9
330
0
100
AcDbSymbolTable
 70
    17
  0
APPID
  5
11
330
9
100
AcDbSymbolTableRecord
100
AcDbRegAppTableRecord
  2
ACAD
 70
     0
  0
APPID
  5
24D
330
9
100
AcDbSymbolTableRecord
100
AcDbRegAppTableRecord
  2
LAYTOOL
 70
     0
  0
APPID
  5
260
330
9
100
AcDbSymbolTableRecord
100
AcDbRegAppTableRecord
  2
EXPFLAG
 70
     0
  0
APPID
  5
508
330
9
100
AcDbSymbolTableRecord
100
AcDbRegAppTableRecord
  2
AcAecLayerStandard
 70
     0
  0
APPID
  5
512
330
9
100
AcDbSymbolTableRecord
100
AcDbRegAppTableRecord
  2
ACAD_DSTYLE_DIMTEXT_FILL
 70
     0
  0
APPID
  5
5AA
330
9
100
AcDbSymbolTableRecord
100
AcDbRegAppTableRecord
  2
ACAD_MLEADERVER
 70
     0
  0
APPID
  5
5C4
330
9
100
AcDbSymbolTableRecord
100
AcDbRegAppTableRecord
  2
ACAD_PSEXT
 70
     0
  0
APPID
  5
605
330
9
100
AcDbSymbolTableRecord
100
AcDbRegAppTableRecord
  2
ACAD_DSTYLE_DIMJAG
 70
     0
  0
APPID
  5
606
330
9
100
AcDbSymbolTableRecord
100
AcDbRegAppTableRecord
  2
ACAD_DSTYLE_DIMBREAK
 70
     0
  0
APPID
  5
607
330
9
100
AcDbSymbolTableRecord
100
AcDbRegAppTableRecord
  2
ACAD_DSTYLE_DIMTALN
 70
     0
  0
APPID
  5
612
330
9
100
AcDbSymbolTableRecord
100
AcDbRegAppTableRecord
  2
ACAD_NAV_VCDISPLAY
 70
     0
  0
APPID
  5
7A2
330
9
100
AcDbSymbolTableRecord
100
AcDbRegAppTableRecord
  2
DCO15
 70
     0
  0
APPID
  5
CA3
330
9
100
AcDbSymbolTableRecord
100
AcDbRegAppTableRecord
  2
Thread_type
 70
     0
  0
APPID
  5
1374
330
9
100
AcDbSymbolTableRecord
100
AcDbRegAppTableRecord
  2
AcCmTransparency
 70
     0
  0
APPID
  5
254A
330
9
100
AcDbSymbolTableRecord
100
AcDbRegAppTableRecord
  2
ACAD_EXEMPT_FROM_CAD_STANDARDS
 70
     0
  0
APPID
  5
25CF
330
9
100
AcDbSymbolTableRecord
100
AcDbRegAppTableRecord
  2
LAYCODE
 70
     0
  0
APPID
  5
2844
330
9
100
AcDbSymbolTableRecord
100
AcDbRegAppTableRecord
  2
ACAD_DSTYLE_DIMRADIAL_EXTENSION
 70
     0
  0
ENDTAB
  0
TABLE
  2
DIMSTYLE
  5
A
330
0
100
AcDbSymbolTable
 70
    10
100
AcDbDimStyleTable
 71
     1
340
93
  0
DIMSTYLE
105
1D
330
A
100
AcDbSymbolTableRecord
100
AcDbDimStyleTableRecord
  2
STANDARD
 70
     0
340
10
  0
DIMSTYLE
105
24
330
A
100
AcDbSymbolTableRecord
100
AcDbDimStyleTableRecord
  2
ISO-25
 70
     0
 41
2.5
 42
0.625
 43
3.75
 44
1.25
 74
     0
 77
     1
 78
     8
140
2.5
141
2.5
143
0.0394
145
1.0
147
0.625
172
     1
340
10
  0
DIMSTYLE
105
25
330
A
100
AcDbSymbolTableRecord
100
AcDbDimStyleTableRecord
  2
ISO-35
 70
     0
 41
3.5
 42
0.875
 43
5.25
 44
1.75
 74
     0
 77
     1
 78
     8
140
3.5
141
3.5
143
0.0394
145
1.399999999999999
147
0.875
172
     1
340
10
  0
DIMSTYLE
105
26
330
A
100
AcDbSymbolTableRecord
100
AcDbDimStyleTableRecord
  2
ISO-5
 70
     0
 41
5.0
 42
1.25
 43
7.5
 44
2.5
 74
     0
 77
     1
 78
     8
140
5.0
141
5.0
143
0.0394
145
2.0
147
1.25
172
     1
340
10
  0
DIMSTYLE
105
27
330
A
100
AcDbSymbolTableRecord
100
AcDbDimStyleTableRecord
  2
ISO-7
 70
     0
 41
7.0
 42
1.75
 43
10.5
 44
3.5
 74
     0
 77
     1
 78
     8
140
7.0
141
7.0
143
0.0394
145
2.799999999999999
147
1.75
172
     1
340
10
  0
DIMSTYLE
105
28
330
A
100
AcDbSymbolTableRecord
100
AcDbDimStyleTableRecord
  2
ISO1
 70
     0
 41
10.0
 42
2.5
 43
15.0
 44
5.0
 74
     0
 77
     1
 78
     8
140
10.0
141
10.0
143
0.0394
145
4.0
147
2.5
172
     1
340
10
  0
DIMSTYLE
105
29
330
A
100
AcDbSymbolTableRecord
100
AcDbDimStyleTableRecord
  2
ISO1-4
 70
     0
 41
14.0
 42
3.5
 43
21.0
 44
7.0
 74
     0
 77
     1
 78
     8
140
14.0
141
14.0
143
0.0394
145
5.599999999999999
147
3.5
172
     1
340
10
  0
DIMSTYLE
105
2A
330
A
100
AcDbSymbolTableRecord
100
AcDbDimStyleTableRecord
  2
ISO2
 70
     0
 41
20.0
 42
5.0
 43
30.0
 44
10.0
 74
     0
 77
     1
 78
     8
140
20.0
141
20.0
143
0.0394
145
8.0
147
5.0
172
     1
340
10
  0
DIMSTYLE
105
93
102
{ACAD_REACTORS
330
4752
330
4753
330
475D
330
475E
102
}
330
A
100
AcDbSymbolTableRecord
100
AcDbDimStyleTableRecord
  2
ITM
 70
     0
 40
5.0
 41
1.5
 42
0.0
 43
6.0
 44
2.0
 47
495.0
 73
     0
 74
     0
 77
     3
 78
     8
 79
     2
140
3.0
141
0.0
147
0.6
172
     1
176
     4
177
     4
178
   256
179
     3
271
     3
272
     3
283
     0
284
     8
288
     1
340
2CC
341
4A1
342
4A1
343
4A1
344
4A1
  0
DIMSTYLE
105
608
330
A
100
AcDbSymbolTableRecord
100
AcDbDimStyleTableRecord
  2
ITM$4
 70
     0
 40
5.0
 41
1.5
 42
0.0
 43
6.0
 44
2.0
 47
495.0
 73
     0
 74
     0
 75
     1
 77
     3
 78
     8
 79
     2
140
3.0
141
0.0
147
0.6
172
     1
176
     4
177
     4
178
   256
179
     8
271
     8
272
     3
283
     0
284
     8
288
     1
340
2CC
341
4A1
342
4A1
1001
ACAD_DSTYLE_DIMBREAK
1070
   391
1040
3.75
1001
ACAD_DSTYLE_DIMJAG
1070
   388
1040
1.5
1001
ACAD_DSTYLE_DIMTALN
1070
   392
1070
     0
  0
ENDTAB
  0
TABLE
  2
BLOCK_RECORD
  5
1
330
0
100
AcDbSymbolTable
 70
     8
  0
BLOCK_RECORD
  5
1A
102
{ACAD_XDICTIONARY
360
768
102
}
330
1
100
AcDbSymbolTableRecord
100
AcDbBlockTableRecord
  2
*MODEL_SPACE
340
4BE
  0
BLOCK_RECORD
  5
17
330
1
100
AcDbSymbolTableRecord
100
AcDbBlockTableRecord
  2
*PAPER_SPACE
340
4BF
  0
BLOCK_RECORD
  5
30D
330
1
100
AcDbSymbolTableRecord
100
AcDbBlockTableRecord
  2
A4-NEW
340
0
310
2800000020000000200000000100080000000000000400000000000000000000000000000000000000000000000080000080000000808000800000008000800080800000C0C0C000C0DCC000F0CAA6000020400000206000002080000020A0000020C0000020E00000400000004020000040400000406000004080000040A0
310
000040C0000040E00000600000006020000060400000606000006080000060A0000060C0000060E00000800000008020000080400000806000008080000080A0000080C0000080E00000A0000000A0200000A0400000A0600000A0800000A0A00000A0C00000A0E00000C0000000C0200000C0400000C0600000C0800000C0
310
A00000C0C00000C0E00000E0000000E0200000E0400000E0600000E0800000E0A00000E0C00000E0E00040000000400020004000400040006000400080004000A0004000C0004000E00040200000402020004020400040206000402080004020A0004020C0004020E000404000004040200040404000404060004040800040
310
40A0004040C0004040E00040600000406020004060400040606000406080004060A0004060C0004060E00040800000408020004080400040806000408080004080A0004080C0004080E00040A0000040A0200040A0400040A0600040A0800040A0A00040A0C00040A0E00040C0000040C0200040C0400040C0600040C08000
310
40C0A00040C0C00040C0E00040E0000040E0200040E0400040E0600040E0800040E0A00040E0C00040E0E00080000000800020008000400080006000800080008000A0008000C0008000E00080200000802020008020400080206000802080008020A0008020C0008020E00080400000804020008040400080406000804080
310
008040A0008040C0008040E00080600000806020008060400080606000806080008060A0008060C0008060E00080800000808020008080400080806000808080008080A0008080C0008080E00080A0000080A0200080A0400080A0600080A0800080A0A00080A0C00080A0E00080C0000080C0200080C0400080C0600080C0
310
800080C0A00080C0C00080C0E00080E0000080E0200080E0400080E0600080E0800080E0A00080E0C00080E0E000C0000000C0002000C0004000C0006000C0008000C000A000C000C000C000E000C0200000C0202000C0204000C0206000C0208000C020A000C020C000C020E000C0400000C0402000C0404000C0406000C0
310
408000C040A000C040C000C040E000C0600000C0602000C0604000C0606000C0608000C060A000C060C000C060E000C0800000C0802000C0804000C0806000C0808000C080A000C080C000C080E000C0A00000C0A02000C0A04000C0A06000C0A08000C0A0A000C0A0C000C0A0E000C0C00000C0C02000C0C04000C0C06000
310
C0C08000C0C0A000F0FBFF00A4A0A000808080000000FF0000FF000000FFFF00FF000000FF00FF00FFFF0000FFFFFF00000000000000000000000000000000000000000000000000000000000000000000000000000000000000000000000000FA0000000000000000000000000000000000000000000000FBFBFFFAFAFAFA
310
FAFAFAFAFAFAFAFBFFFFFB00000000000000000000000000FFFFFFFFFFFFFFFFFFFFFFFF00000000FFFFFF00000000000000000000000000FAFFFFFAFAFAFAFFFAFAFFFFFAFAFAFAFAFAFA0000000000000000000000000000FAFFFFFFFFFFFFFFFFFFFFFAFAFAFAFAFAFA0000000000000000000000000000FB0000000000
310
0000000000000000000000FB00000000000000000000000000FFFF00000000000000000000000000000000FF0000000000000000000000000000FB00000000000000000000000000000000FB0000000000000000000000000000FB00000000000000000000000000000000FB00000000000000000000000000FAFA00000000
310
000000000000000000000000FA0000000000000000000000000000FB00000000000000000000000000000000FB00000000000000000000000000FFFF00000000000000000000000000000000FF00000000000000000000000000FFFF00000000000000000000000000000000FF0000000000000000000000000000FB000000
310
00000000000000000000000000FB0000000000000000000000000000FB00000000000000000000000000000000FB000000000000000000000000FAFAFA00000000000000FF0000000000000000FA0000000000000000000000000000FB00000000000000000000000000000000FB00000000000000000000000000FFFF0000
310
0000000000000000000000000000FF0000000000000000000000000000FF00000000000000000000000000000000FF0000000000000000000000000000FB00000000000000000000000000000000FB00000000000000000000000000FAFA00000000000000000000000000000000FA0000000000000000000000000000FB00
310
000000000000000000000000000000FB0000000000000000000000000000FB00000000000000000000000000000000FB00000000000000000000000000FFFF00000000000000000000000000000000FF0000000000000000000000000000FB00000000000000000000000000000000FB0000000000000000000000000000FB
310
00000000000000000000000000000000FB00000000000000000000000000FAFA00000000000000000000000000000000FA00000000000000000000000000FFFF00000000000000000000000000000000FF0000000000000000000000000000FBFBFFFAFBFBFFFBFAFBFFFFFBFAFBFFFBFB0000000000000000000000000000
310
0000000000000000FA0000000000000000000000000000000000000000000000000000000000000000000000000000000000000000000000
102
{BLKREFS
331
966
102
}
  0
BLOCK_RECORD
  5
484
330
1
100
AcDbSymbolTableRecord
100
AcDbBlockTableRecord
  2
S36
340
0
102
{BLKREFS
331
851
102
}
  0
BLOCK_RECORD
  5
4A1
330
1
100
AcDbSymbolTableRecord
100
AcDbBlockTableRecord
  2
_OPEN
340
0
102
{BLKREFS
331
4980
331
4981
331
4AA3
331
4AA4
331
4AB8
331
4AB9
331
4ACA
331
4ACB
102
}
  0
BLOCK_RECORD
  5
76A
330
1
100
AcDbSymbolTableRecord
100
AcDbBlockTableRecord
  2
KVK
340
0
102
{BLKREFS
331
95C
102
}
  0
BLOCK_RECORD
  5
475F
330
1
100
AcDbSymbolTableRecord
100
AcDbBlockTableRecord
  2
*D4
340
0
  0
BLOCK_RECORD
  5
476A
330
1
100
AcDbSymbolTableRecord
100
AcDbBlockTableRecord
  2
*D5
340
0
  0
BLOCK_RECORD
  5
4776
330
1
100
AcDbSymbolTableRecord
100
AcDbBlockTableRecord
  2
*D6
340
0
  0
BLOCK_RECORD
  5
4782
330
1
100
AcDbSymbolTableRecord
100
AcDbBlockTableRecord
  2
*D7
340
0
  0
ENDTAB
  0
ENDSEC
  0
SECTION
  2
BLOCKS
  0
BLOCK
  5
1B
330
1A
100
AcDbEntity
  8
0
100
AcDbBlockBegin
  2
*MODEL_SPACE
 70
     0
 10
0.0
 20
0.0
 30
0.0
  3
*MODEL_SPACE
  1

  0
ENDBLK
  5
1C
330
1A
100
AcDbEntity
  8
0
100
AcDbBlockEnd
  0
BLOCK
  5
18
330
17
100
AcDbEntity
 67
     1
  8
0
100
AcDbBlockBegin
  2
*PAPER_SPACE
 70
     0
 10
0.0
 20
0.0
 30
0.0
  3
*PAPER_SPACE
  1

  0
ENDBLK
  5
19
330
17
100
AcDbEntity
 67
     1
  8
0
100
AcDbBlockEnd
  0
BLOCK
  5
420
330
30D
100
AcDbEntity
  8
0
100
AcDbBlockBegin
  2
A4-NEW
 70
     0
 10
0.0
 20
0.0
 30
0.0
  3
A4-NEW
  1

  0
LINE
  5
8E2
330
30D
100
AcDbEntity
  8
0
 62
     2
100
AcDbLine
 10
-437.4999999999999
 20
692.4999999999998
 30
0.0
 11
-437.4999999999999
 21
-692.4999999999998
 31
0.0
  0
LINE
  5
8E3
330
30D
100
AcDbEntity
  8
0
 62
     2
100
AcDbLine
 10
-437.4999999999999
 20
-692.4999999999998
 30
0.0
 11
437.4999999999999
 21
-692.4999999999998
 31
0.0
  0
LINE
  5
8E4
330
30D
100
AcDbEntity
  8
0
 62
     2
100
AcDbLine
 10
437.4999999999999
 20
-692.4999999999998
 30
0.0
 11
437.4999999999999
 21
692.4999999999998
 31
0.0
  0
LINE
  5
8E5
330
30D
100
AcDbEntity
  8
0
 62
     2
100
AcDbLine
 10
437.4999999999999
 20
692.4999999999998
 30
0.0
 11
-437.4999999999999
 21
692.4999999999998
 31
0.0
  0
LINE
  5
8E6
330
30D
100
AcDbEntity
  8
0
 62
     3
100
AcDbLine
 10
0.0
 20
-692.4999999999998
 30
0.0
 11
0.0
 21
-741.9999999999999
 31
0.0
  0
LINE
  5
8E7
330
30D
100
AcDbEntity
  8
0
 62
     3
100
AcDbLine
 10
0.0
 20
741.9999999999999
 30
0.0
 11
0.0
 21
692.4999999999998
 31
0.0
  0
LINE
  5
8E8
330
30D
100
AcDbEntity
  8
0
 62
     3
100
AcDbLine
 10
-561.9999999999999
 20
0.0
 30
0.0
 11
-437.4999999999999
 21
0.0
 31
0.0
  0
LINE
  5
8E9
330
30D
100
AcDbEntity
  8
0
 62
     3
100
AcDbLine
 10
437.4999999999999
 20
0.0
 30
0.0
 11
486.9999999999999
 21
0.0
 31
0.0
  0
LINE
  5
8EA
330
30D
100
AcDbEntity
  8
0
 62
     3
100
AcDbLine
 10
-250.0
 20
-692.4999999999998
 30
0.0
 11
-250.0
 21
-717.4999999999998
 31
0.0
  0
LINE
  5
8EB
330
30D
100
AcDbEntity
  8
0
 62
     3
100
AcDbLine
 10
-200.0
 20
-692.4999999999998
 30
0.0
 11
-200.0
 21
-717.4999999999998
 31
0.0
  0
LINE
  5
8EC
330
30D
100
AcDbEntity
  8
0
 62
     3
100
AcDbLine
 10
-150.0
 20
-692.4999999999998
 30
0.0
 11
-150.0
 21
-717.4999999999998
 31
0.0
  0
LINE
  5
8ED
330
30D
100
AcDbEntity
  8
0
 62
     3
100
AcDbLine
 10
-100.0
 20
-692.4999999999998
 30
0.0
 11
-100.0
 21
-717.4999999999998
 31
0.0
  0
LINE
  5
8EE
330
30D
100
AcDbEntity
  8
0
 62
     3
100
AcDbLine
 10
250.0
 20
-717.4999999999998
 30
0.0
 11
250.0
 21
-692.4999999999998
 31
0.0
  0
LINE
  5
8EF
330
30D
100
AcDbEntity
  8
0
 62
     3
100
AcDbLine
 10
200.0
 20
-692.4999999999998
 30
0.0
 11
200.0
 21
-717.4999999999998
 31
0.0
  0
LINE
  5
8F0
330
30D
100
AcDbEntity
  8
0
 62
     3
100
AcDbLine
 10
150.0
 20
-717.4999999999998
 30
0.0
 11
150.0
 21
-692.4999999999998
 31
0.0
  0
LINE
  5
8F1
330
30D
100
AcDbEntity
  8
0
 62
     3
100
AcDbLine
 10
100.0
 20
-692.4999999999998
 30
0.0
 11
100.0
 21
-717.4999999999998
 31
0.0
  0
LINE
  5
8F2
330
30D
100
AcDbEntity
  8
0
 62
     3
100
AcDbLine
 10
-50.0
 20
-692.4999999999998
 30
0.0
 11
-50.0
 21
-717.4999999999998
 31
0.0
  0
LINE
  5
8F3
330
30D
100
AcDbEntity
  8
0
 62
     3
100
AcDbLine
 10
50.0
 20
-692.4999999999998
 30
0.0
 11
50.0
 21
-717.4999999999998
 31
0.0
  0
LINE
  5
8F4
330
30D
100
AcDbEntity
  8
0
 62
     3
100
AcDbLine
 10
-250.0
 20
-717.4999999999998
 30
0.0
 11
250.0
 21
-717.4999999999998
 31
0.0
  0
LINE
  5
8F5
330
30D
100
AcDbEntity
  8
0
 62
     3
100
AcDbLine
 10
-462.4999999999999
 20
599.9999999999999
 30
0.0
 11
-437.4999999999999
 21
599.9999999999999
 31
0.0
  0
LINE
  5
8F6
330
30D
100
AcDbEntity
  8
0
 62
     3
100
AcDbLine
 10
-462.4999999999999
 20
-300.0
 30
0.0
 11
-437.4999999999999
 21
-300.0
 31
0.0
  0
LINE
  5
8F7
330
30D
100
AcDbEntity
  8
0
 62
     3
100
AcDbLine
 10
462.4999999999999
 20
599.9999999999999
 30
0.0
 11
437.4999999999999
 21
599.9999999999999
 31
0.0
  0
LINE
  5
8F8
330
30D
100
AcDbEntity
  8
0
 62
     3
100
AcDbLine
 10
437.4999999999999
 20
-300.0
 30
0.0
 11
462.4999999999999
 21
-300.0
 31
0.0
  0
LINE
  5
8F9
330
30D
100
AcDbEntity
  8
0
 62
     3
100
AcDbLine
 10
462.4999999999999
 20
300.0
 30
0.0
 11
437.4999999999999
 21
300.0
 31
0.0
  0
LINE
  5
8FA
330
30D
100
AcDbEntity
  8
0
 62
     3
100
AcDbLine
 10
437.4999999999999
 20
-599.9999999999999
 30
0.0
 11
462.4999999999999
 21
-599.9999999999999
 31
0.0
  0
LINE
  5
8FB
330
30D
100
AcDbEntity
  8
0
 62
     3
100
AcDbLine
 10
-437.4999999999999
 20
-599.9999999999999
 30
0.0
 11
-462.4999999999999
 21
-599.9999999999999
 31
0.0
  0
LINE
  5
8FC
330
30D
100
AcDbEntity
  8
0
 62
     3
100
AcDbLine
 10
-462.4999999999999
 20
300.0
 30
0.0
 11
-437.4999999999999
 21
300.0
 31
0.0
  0
LINE
  5
8FD
330
30D
100
AcDbEntity
  8
0
 62
     3
100
AcDbLine
 10
-250.0
 20
717.4999999999998
 30
0.0
 11
-250.0
 21
692.4999999999998
 31
0.0
  0
LINE
  5
8FE
330
30D
100
AcDbEntity
  8
0
 62
     3
100
AcDbLine
 10
250.0
 20
717.4999999999998
 30
0.0
 11
250.0
 21
692.4999999999998
 31
0.0
  0
TEXT
  5
8FF
330
30D
100
AcDbEntity
  8
0
  6
Continuous
 62
     7
100
AcDbText
 10
-135.9999999999999
 20
695.4999999999999
 30
0.0
 40
22.0
  1
２
  7
BIGFONT
100
AcDbText
  0
TEXT
  5
900
330
30D
100
AcDbEntity
  8
0
  6
Continuous
 62
     7
100
AcDbText
 10
114.0
 20
695.4999999999999
 30
0.0
 40
22.0
  1
３
  7
BIGFONT
100
AcDbText
  0
TEXT
  5
901
330
30D
100
AcDbEntity
  8
0
  6
Continuous
 62
     7
100
AcDbText
 10
-354.7499999999999
 20
695.4999999999999
 30
0.0
 40
22.0
  1
１
  7
BIGFONT
100
AcDbText
  0
TEXT
  5
902
330
30D
100
AcDbEntity
  8
0
  6
Continuous
 62
     7
100
AcDbText
 10
332.75
 20
695.4999999999999
 30
0.0
 40
22.0
  1
４
  7
BIGFONT
100
AcDbText
  0
TEXT
  5
903
330
30D
100
AcDbEntity
  8
0
  6
Continuous
 62
     7
100
AcDbText
 10
-354.7499999999999
 20
-717.4999999999999
 30
0.0
 40
22.0
  1
１
  7
BIGFONT
100
AcDbText
  0
TEXT
  5
904
330
30D
100
AcDbEntity
  8
0
  6
Continuous
 62
     7
100
AcDbText
 10
332.75
 20
-717.4999999999999
 30
0.0
 40
22.0
  1
４
  7
BIGFONT
100
AcDbText
  0
TEXT
  5
905
330
30D
100
AcDbEntity
  8
0
  6
Continuous
 62
     7
100
AcDbText
 10
-462.4999999999999
 20
138.9999999999999
 30
0.0
 40
22.0
  1
Ｃ
  7
BIGFONT
100
AcDbText
  0
TEXT
  5
906
330
30D
100
AcDbEntity
  8
0
  6
Continuous
 62
     7
100
AcDbText
 10
-462.4999999999999
 20
438.9999999999998
 30
0.0
 40
22.0
  1
Ｂ
  7
BIGFONT
100
AcDbText
  0
TEXT
  5
907
330
30D
100
AcDbEntity
  8
0
  6
Continuous
 62
     7
100
AcDbText
 10
-462.4999999999999
 20
-160.9999999999999
 30
0.0
 40
22.0
  1
Ｄ
  7
BIGFONT
100
AcDbText
  0
TEXT
  5
908
330
30D
100
AcDbEntity
  8
0
  6
Continuous
 62
     7
100
AcDbText
 10
-462.4999999999999
 20
-460.9999999999999
 30
0.0
 40
22.0
  1
Ｅ
  7
BIGFONT
100
AcDbText
  0
TEXT
  5
909
330
30D
100
AcDbEntity
  8
0
  6
Continuous
 62
     7
100
AcDbText
 10
-462.4999999999999
 20
635.2499999999999
 30
0.0
 40
22.0
  1
Ａ
  7
BIGFONT
100
AcDbText
  0
TEXT
  5
90A
330
30D
100
AcDbEntity
  8
0
  6
Continuous
 62
     7
100
AcDbText
 10
-462.4999999999999
 20
-657.2499999999998
 30
0.0
 40
22.0
  1
Ｆ
  7
BIGFONT
100
AcDbText
  0
TEXT
  5
90B
330
30D
100
AcDbEntity
  8
0
  6
Continuous
 62
     7
100
AcDbText
 10
440.4999999999999
 20
635.2499999999999
 30
0.0
 40
22.0
  1
Ａ
  7
BIGFONT
100
AcDbText
  0
TEXT
  5
90C
330
30D
100
AcDbEntity
  8
0
  6
Continuous
 62
     7
100
AcDbText
 10
440.4999999999999
 20
438.9999999999998
 30
0.0
 40
22.0
  1
Ｂ
  7
BIGFONT
100
AcDbText
  0
TEXT
  5
90D
330
30D
100
AcDbEntity
  8
0
  6
Continuous
 62
     7
100
AcDbText
 10
440.4999999999999
 20
138.9999999999999
 30
0.0
 40
22.0
  1
Ｃ
  7
BIGFONT
100
AcDbText
  0
TEXT
  5
90E
330
30D
100
AcDbEntity
  8
0
  6
Continuous
 62
     7
100
AcDbText
 10
440.4999999999999
 20
-160.9999999999999
 30
0.0
 40
22.0
  1
Ｄ
  7
BIGFONT
100
AcDbText
  0
TEXT
  5
90F
330
30D
100
AcDbEntity
  8
0
  6
Continuous
 62
     7
100
AcDbText
 10
440.4999999999999
 20
-460.9999999999999
 30
0.0
 40
22.0
  1
Ｅ
  7
BIGFONT
100
AcDbText
  0
TEXT
  5
910
330
30D
100
AcDbEntity
  8
0
  6
Continuous
 62
     7
100
AcDbText
 10
440.4999999999999
 20
-657.2499999999998
 30
0.0
 40
22.0
  1
Ｆ
  7
BIGFONT
100
AcDbText
  0
POINT
  5
911
330
30D
100
AcDbEntity
  8
DEFPOINTS
100
AcDbPoint
 10
0.0
 20
0.0
 30
0.0
  0
LINE
  5
912
330
30D
100
AcDbEntity
  8
0
 62
     2
100
AcDbLine
 10
-437.4999999999997
 20
-540.0
 30
0.0
 11
437.5
 21
-540.0
 31
0.0
  0
LINE
  5
913
330
30D
100
AcDbEntity
  8
0
 62
     3
100
AcDbLine
 10
437.5
 20
-569.9999999999999
 30
0.0
 11
-437.4999999999997
 21
-569.9999999999999
 31
0.0
  0
LINE
  5
914
330
30D
100
AcDbEntity
  8
0
 62
     3
100
AcDbLine
 10
0.0000000000001705
 20
-540.0
 30
0.0
 11
0.0000000000001705
 21
-569.9999999999999
 31
0.0
  0
LINE
  5
915
330
30D
100
AcDbEntity
  8
0
 62
     3
100
AcDbLine
 10
0.0000000000002842
 20
-569.9999999999999
 30
0.0
 11
0.0000000000001705
 21
-629.9999999999998
 31
0.0
  0
LINE
  5
916
330
30D
100
AcDbEntity
  8
0
 62
     3
100
AcDbLine
 10
0.0000000000001705
 20
-629.9999999999998
 30
0.0
 11
0.0000000000001705
 21
-692.4999999999998
 31
0.0
  0
LINE
  5
917
330
30D
100
AcDbEntity
  8
0
 62
     3
100
AcDbLine
 10
-437.4999999999997
 20
-629.9999999999998
 30
0.0
 11
437.5
 21
-629.9999999999998
 31
0.0
  0
LINE
  5
918
330
30D
100
AcDbEntity
  8
0
 62
     3
100
AcDbLine
 10
-329.9999999999997
 20
-569.9999999999999
 30
0.0
 11
-329.9999999999998
 21
-629.9999999999998
 31
0.0
  0
LINE
  5
919
330
30D
100
AcDbEntity
  8
0
 62
     3
100
AcDbLine
 10
-179.9999999999998
 20
-629.9999999999998
 30
0.0
 11
-179.9999999999998
 21
-569.9999999999999
 31
0.0
  0
LINE
  5
91A
330
30D
100
AcDbEntity
  8
0
 62
     3
100
AcDbLine
 10
-89.99999999999984
 20
-569.9999999999999
 30
0.0
 11
-89.99999999999984
 21
-629.9999999999998
 31
0.0
  0
LINE
  5
91B
330
30D
100
AcDbEntity
  8
0
 62
     3
100
AcDbLine
 10
100.0000000000001
 20
-540.0
 30
0.0
 11
100.0
 21
-569.9999999999999
 31
0.0
  0
LINE
  5
91C
330
30D
100
AcDbEntity
  8
0
 62
     3
100
AcDbLine
 10
100.0000000000001
 20
-629.9999999999998
 30
0.0
 11
100.0000000000001
 21
-692.4999999999998
 31
0.0
  0
TEXT
  5
91D
330
30D
100
AcDbEntity
  8
0
  6
Continuous
 62
     7
100
AcDbText
 10
-164.9999999999998
 20
-596.0
 30
0.0
 40
15.0
  1
尺    度
 41
0.833
  7
BIGFONT
100
AcDbText
  0
TEXT
  5
91E
330
30D
100
AcDbEntity
  8
0
  6
Continuous
 62
     7
100
AcDbText
 10
-157.7499999999998
 20
-617.4999999999998
 30
0.0
 40
12.5
  1
Ｓ
 41
0.833
  7
BIGFONT
100
AcDbText
  0
TEXT
  5
91F
330
30D
100
AcDbEntity
  8
0
  6
Continuous
 62
     7
100
AcDbText
 10
-147.9999999999998
 20
-617.4999999999998
 30
0.0
 40
12.5
  1
ｃ
 41
0.833
  7
BIGFONT
100
AcDbText
  0
TEXT
  5
920
330
30D
100
AcDbEntity
  8
0
  6
Continuous
 62
     7
100
AcDbText
 10
-138.4999999999998
 20
-617.4999999999998
 30
0.0
 40
12.5
  1
ａ
 41
0.833
  7
BIGFONT
100
AcDbText
  0
TEXT
  5
921
330
30D
100
AcDbEntity
  8
0
  6
Continuous
 62
     7
100
AcDbText
 10
-130.7499999999998
 20
-617.4999999999998
 30
0.0
 40
12.5
  1
ｌ
 41
0.833
  7
BIGFONT
100
AcDbText
  0
TEXT
  5
922
330
30D
100
AcDbEntity
  8
0
  6
Continuous
 62
     7
100
AcDbText
 10
-123.2499999999998
 20
-617.4999999999998
 30
0.0
 40
12.5
  1
ｅ
 41
0.833
  7
BIGFONT
100
AcDbText
  0
TEXT
  5
923
330
30D
100
AcDbEntity
  8
0
  6
Continuous
 62
     7
100
AcDbText
 10
20.00000000000017
 20
-556.0
 30
0.0
 40
15.0
  1
品    番
 41
0.833
  7
BIGFONT
100
AcDbText
  0
TEXT
  5
924
330
30D
100
AcDbEntity
  8
0
  6
Continuous
 62
     7
100
AcDbText
 10
14.50000000000017
 20
-568.9999999999998
 30
0.0
 40
12.5
  1
Ｍ
 41
0.833
  7
BIGFONT
100
AcDbText
  0
TEXT
  5
925
330
30D
100
AcDbEntity
  8
0
  6
Continuous
 62
     7
100
AcDbText
 10
25.00000000000017
 20
-568.9999999999998
 30
0.0
 40
12.5
  1
ｏ
 41
0.833
  7
BIGFONT
100
AcDbText
  0
TEXT
  5
926
330
30D
100
AcDbEntity
  8
0
  6
Continuous
 62
     7
100
AcDbText
 10
32.50000000000017
 20
-568.9999999999998
 30
0.0
 40
12.5
  1
ｄ
 41
0.833
  7
BIGFONT
100
AcDbText
  0
TEXT
  5
927
330
30D
100
AcDbEntity
  8
0
  6
Continuous
 62
     7
100
AcDbText
 10
41.00000000000017
 20
-568.9999999999998
 30
0.0
 40
12.5
  1
ｅ
 41
0.833
  7
BIGFONT
100
AcDbText
  0
TEXT
  5
928
330
30D
100
AcDbEntity
  8
0
  6
Continuous
 62
     7
100
AcDbText
 10
47.00000000000017
 20
-568.9999999999998
 30
0.0
 40
12.5
  1
ｌ
 41
0.833
  7
BIGFONT
100
AcDbText
  0
TEXT
  5
929
330
30D
100
AcDbEntity
  8
0
  6
Continuous
 62
     7
100
AcDbText
 10
62.00000000000017
 20
-568.9999999999998
 30
0.0
 40
12.5
  1
Ｎ
 41
0.833
  7
BIGFONT
100
AcDbText
  0
TEXT
  5
92A
330
30D
100
AcDbEntity
  8
0
  6
Continuous
 62
     7
100
AcDbText
 10
70.75000000000017
 20
-568.9999999999998
 30
0.0
 40
12.5
  1
ｏ
 41
0.833
  7
BIGFONT
100
AcDbText
  0
TEXT
  5
92B
330
30D
100
AcDbEntity
  8
0
  6
Continuous
 62
     7
100
AcDbText
 10
79.00000000000017
 20
-568.9999999999998
 30
0.0
 40
12.5
  1
．
 41
0.833
  7
BIGFONT
100
AcDbText
  0
TEXT
  5
92C
330
30D
100
AcDbEntity
  8
0
  6
Continuous
 62
     7
100
AcDbText
 10
30.50000000000017
 20
-617.5457107056444
 30
0.0
 40
12.5
  1
Ｎ
 41
0.833
  7
BIGFONT
100
AcDbText
  0
TEXT
  5
92D
330
30D
100
AcDbEntity
  8
0
  6
Continuous
 62
     7
100
AcDbText
 10
39.75000000000017
 20
-617.5457107056444
 30
0.0
 40
12.5
  1
ａ
 41
0.833
  7
BIGFONT
100
AcDbText
  0
TEXT
  5
92E
330
30D
100
AcDbEntity
  8
0
  6
Continuous
 62
     7
100
AcDbText
 10
49.75000000000017
 20
-617.5457107056444
 30
0.0
 40
12.5
  1
ｍ
 41
0.833
  7
BIGFONT
100
AcDbText
  0
TEXT
  5
92F
330
30D
100
AcDbEntity
  8
0
  6
Continuous
 62
     7
100
AcDbText
 10
59.00000000000017
 20
-617.5457107056444
 30
0.0
 40
12.5
  1
ｅ
 41
0.833
  7
BIGFONT
100
AcDbText
  0
TEXT
  5
930
330
30D
100
AcDbEntity
  8
0
  6
Continuous
 62
     7
100
AcDbText
 10
20.00000000000017
 20
-655.9999999999997
 30
0.0
 40
15.0
  1
図    番
 41
0.833
  7
BIGFONT
100
AcDbText
  0
TEXT
  5
931
330
30D
100
AcDbEntity
  8
0
  6
Continuous
 62
     7
100
AcDbText
 10
6.50000000000017
 20
-679.9999999999998
 30
0.0
 40
12.5
  1
Ｄ
 41
0.833
  7
BIGFONT
100
AcDbText
  0
TEXT
  5
932
330
30D
100
AcDbEntity
  8
0
  6
Continuous
 62
     7
100
AcDbText
 10
15.00000000000017
 20
-679.9999999999998
 30
0.0
 40
12.5
  1
ｒ
 41
0.833
  7
BIGFONT
100
AcDbText
  0
TEXT
  5
933
330
30D
100
AcDbEntity
  8
0
  6
Continuous
 62
     7
100
AcDbText
 10
21.25000000000017
 20
-679.9999999999998
 30
0.0
 40
12.5
  1
ａ
 41
0.833
  7
BIGFONT
100
AcDbText
  0
TEXT
  5
934
330
30D
100
AcDbEntity
  8
0
  6
Continuous
 62
     7
100
AcDbText
 10
29.25000000000017
 20
-679.9999999999998
 30
0.0
 40
12.5
  1
ｗ
 41
0.833
  7
BIGFONT
100
AcDbText
  0
TEXT
  5
935
330
30D
100
AcDbEntity
  8
0
  6
Continuous
 62
     7
100
AcDbText
 10
37.00000000000017
 20
-679.9999999999998
 30
0.0
 40
12.5
  1
ｉ
 41
0.833
  7
BIGFONT
100
AcDbText
  0
TEXT
  5
936
330
30D
100
AcDbEntity
  8
0
  6
Continuous
 62
     7
100
AcDbText
 10
42.75000000000017
 20
-679.9999999999998
 30
0.0
 40
12.5
  1
ｎ
 41
0.833
  7
BIGFONT
100
AcDbText
  0
TEXT
  5
937
330
30D
100
AcDbEntity
  8
0
  6
Continuous
 62
     7
100
AcDbText
 10
51.00000000000017
 20
-679.9999999999998
 30
0.0
 40
12.5
  1
ｇ
 41
0.833
  7
BIGFONT
100
AcDbText
  0
TEXT
  5
938
330
30D
100
AcDbEntity
  8
0
  6
Continuous
 62
     7
100
AcDbText
 10
67.00000000000017
 20
-679.9999999999998
 30
0.0
 40
12.5
  1
Ｎ
 41
0.833
  7
BIGFONT
100
AcDbText
  0
TEXT
  5
939
330
30D
100
AcDbEntity
  8
0
  6
Continuous
 62
     7
100
AcDbText
 10
75.75000000000017
 20
-679.9999999999998
 30
0.0
 40
12.5
  1
ｏ
 41
0.833
  7
BIGFONT
100
AcDbText
  0
TEXT
  5
93A
330
30D
100
AcDbEntity
  8
0
  6
Continuous
 62
     7
100
AcDbText
 10
84.00000000000018
 20
-679.9999999999998
 30
0.0
 40
12.5
  1
．
 41
0.833
  7
BIGFONT
100
AcDbText
  0
TEXT
  5
93B
330
30D
100
AcDbEntity
  8
0
  6
Continuous
 62
     7
100
AcDbText
 10
-402.4999999999996
 20
-562.5
 30
0.0
 40
15.0
  1
第
  7
BIGFONT
100
AcDbText
  0
TEXT
  5
93C
330
30D
100
AcDbEntity
  8
0
  6
Continuous
 62
     7
100
AcDbText
 10
-380.4999999999997
 20
-562.5
 30
0.0
 40
15.0
  1
三
  7
BIGFONT
100
AcDbText
  0
TEXT
  5
93D
330
30D
100
AcDbEntity
  8
0
  6
Continuous
 62
     7
100
AcDbText
 10
-358.4999999999998
 20
-562.5
 30
0.0
 40
15.0
  1
角
  7
BIGFONT
100
AcDbText
  0
TEXT
  5
93E
330
30D
100
AcDbEntity
  8
0
  6
Continuous
 62
     7
100
AcDbText
 10
-336.4999999999997
 20
-562.5
 30
0.0
 40
15.0
  1
法
  7
BIGFONT
100
AcDbText
  0
TEXT
  5
93F
330
30D
100
AcDbEntity
  8
0
  6
Continuous
 62
     7
100
AcDbText
 10
-285.9999999999999
 20
-562.5
 30
0.0
 40
15.0
  1
Ｔ
  7
BIGFONT
100
AcDbText
  0
TEXT
  5
940
330
30D
100
AcDbEntity
  8
0
  6
Continuous
 62
     7
100
AcDbText
 10
-271.9999999999998
 20
-562.5
 30
0.0
 40
15.0
  1
ｈ
  7
BIGFONT
100
AcDbText
  0
TEXT
  5
941
330
30D
100
AcDbEntity
  8
0
  6
Continuous
 62
     7
100
AcDbText
 10
-262.4999999999998
 20
-562.5
 30
0.0
 40
15.0
  1
ｉ
  7
BIGFONT
100
AcDbText
  0
TEXT
  5
942
330
30D
100
AcDbEntity
  8
0
  6
Continuous
 62
     7
100
AcDbText
 10
-253.7499999999998
 20
-562.5
 30
0.0
 40
15.0
  1
ｒ
  7
BIGFONT
100
AcDbText
  0
TEXT
  5
943
330
30D
100
AcDbEntity
  8
0
  6
Continuous
 62
     7
100
AcDbText
 10
-244.4999999999998
 20
-562.5
 30
0.0
 40
15.0
  1
ｄ
  7
BIGFONT
100
AcDbText
  0
TEXT
  5
944
330
30D
100
AcDbEntity
  8
0
  6
Continuous
 62
     7
100
AcDbText
 10
-219.4999999999998
 20
-562.5
 30
0.0
 40
15.0
  1
Ａ
  7
BIGFONT
100
AcDbText
  0
TEXT
  5
945
330
30D
100
AcDbEntity
  8
0
  6
Continuous
 62
     7
100
AcDbText
 10
-206.2499999999998
 20
-562.5
 30
0.0
 40
15.0
  1
ｎ
  7
BIGFONT
100
AcDbText
  0
TEXT
  5
946
330
30D
100
AcDbEntity
  8
0
  6
Continuous
 62
     7
100
AcDbText
 10
-194.9999999999998
 20
-562.5
 30
0.0
 40
15.0
  1
ｇ
  7
BIGFONT
100
AcDbText
  0
TEXT
  5
947
330
30D
100
AcDbEntity
  8
0
  6
Continuous
 62
     7
100
AcDbText
 10
-186.7499999999998
 20
-562.5
 30
0.0
 40
15.0
  1
ｌ
  7
BIGFONT
100
AcDbText
  0
TEXT
  5
948
330
30D
100
AcDbEntity
  8
0
  6
Continuous
 62
     7
100
AcDbText
 10
-177.9999999999998
 20
-562.5
 30
0.0
 40
15.0
  1
ｅ
  7
BIGFONT
100
AcDbText
  0
TEXT
  5
949
330
30D
100
AcDbEntity
  8
0
  6
Continuous
 62
     7
100
AcDbText
 10
-153.4999999999998
 20
-562.5
 30
0.0
 40
15.0
  1
Ｐ
  7
BIGFONT
100
AcDbText
  0
TEXT
  5
94A
330
30D
100
AcDbEntity
  8
0
  6
Continuous
 62
     7
100
AcDbText
 10
-141.4999999999998
 20
-562.5
 30
0.0
 40
15.0
  1
ｒ
  7
BIGFONT
100
AcDbText
  0
TEXT
  5
94B
330
30D
100
AcDbEntity
  8
0
  6
Continuous
 62
     7
100
AcDbText
 10
-130.4999999999998
 20
-562.5
 30
0.0
 40
15.0
  1
ｏ
  7
BIGFONT
100
AcDbText
  0
TEXT
  5
94C
330
30D
100
AcDbEntity
  8
0
  6
Continuous
 62
     7
100
AcDbText
 10
-119.4999999999998
 20
-562.5
 30
0.0
 40
15.0
  1
ｊ
  7
BIGFONT
100
AcDbText
  0
TEXT
  5
94D
330
30D
100
AcDbEntity
  8
0
  6
Continuous
 62
     7
100
AcDbText
 10
-108.7499999999998
 20
-562.5
 30
0.0
 40
15.0
  1
ｅ
  7
BIGFONT
100
AcDbText
  0
TEXT
  5
94E
330
30D
100
AcDbEntity
  8
0
  6
Continuous
 62
     7
100
AcDbText
 10
-97.49999999999984
 20
-562.5
 30
0.0
 40
15.0
  1
ｃ
  7
BIGFONT
100
AcDbText
  0
TEXT
  5
94F
330
30D
100
AcDbEntity
  8
0
  6
Continuous
 62
     7
100
AcDbText
 10
-86.49999999999982
 20
-562.5
 30
0.0
 40
15.0
  1
ｔ
  7
BIGFONT
100
AcDbText
  0
TEXT
  5
950
330
30D
100
AcDbEntity
  8
0
  6
Continuous
 62
     7
100
AcDbText
 10
-77.99999999999982
 20
-562.5
 30
0.0
 40
15.0
  1
ｉ
  7
BIGFONT
100
AcDbText
  0
TEXT
  5
951
330
30D
100
AcDbEntity
  8
0
  6
Continuous
 62
     7
100
AcDbText
 10
-69.49999999999983
 20
-562.5
 30
0.0
 40
15.0
  1
ｏ
  7
BIGFONT
100
AcDbText
  0
TEXT
  5
952
330
30D
100
AcDbEntity
  8
0
  6
Continuous
 62
     7
100
AcDbText
 10
-58.49999999999983
 20
-562.5
 30
0.0
 40
15.0
  1
ｎ
  7
BIGFONT
100
AcDbText
  0
TEXT
  5
953
330
30D
100
AcDbEntity
  8
0
  6
Continuous
 62
     7
100
AcDbText
 10
-299.9999999999998
 20
-673.7499999999998
 30
0.0
 40
26.0
  1
CORPORATION
 41
1.1
  7
MS-Pゴシック
100
AcDbText
  0
TEXT
  5
954
330
30D
100
AcDbEntity
  8
0
  6
Continuous
 62
     7
100
AcDbText
 10
361.2500000000002
 20
-688.9999999999998
 30
0.0
 40
12.5
  1
Ｒ
 41
0.833
  7
BIGFONT
100
AcDbText
  0
TEXT
  5
955
330
30D
100
AcDbEntity
  8
0
  6
Continuous
 62
     7
100
AcDbText
 10
371.5000000000002
 20
-688.9999999999998
 30
0.0
 40
12.5
  1
ｅ
 41
0.833
  7
BIGFONT
100
AcDbText
  0
TEXT
  5
956
330
30D
100
AcDbEntity
  8
0
  6
Continuous
 62
     7
100
AcDbText
 10
379.0000000000002
 20
-688.9999999999998
 30
0.0
 40
12.5
  1
ｖ
 41
0.833
  7
BIGFONT
100
AcDbText
  0
TEXT
  5
957
330
30D
100
AcDbEntity
  8
0
  6
Continuous
 62
     7
100
AcDbText
 10
388.2500000000002
 20
-688.9999999999998
 30
0.0
 40
12.5
  1
ｉ
 41
0.833
  7
BIGFONT
100
AcDbText
  0
TEXT
  5
958
330
30D
100
AcDbEntity
  8
0
  6
Continuous
 62
     7
100
AcDbText
 10
396.0000000000001
 20
-688.9999999999998
 30
0.0
 40
12.5
  1
ｓ
 41
0.833
  7
BIGFONT
100
AcDbText
  0
TEXT
  5
959
330
30D
100
AcDbEntity
  8
0
  6
Continuous
 62
     7
100
AcDbText
 10
402.7500000000001
 20
-688.9999999999998
 30
0.0
 40
12.5
  1
ｉ
 41
0.833
  7
BIGFONT
100
AcDbText
  0
TEXT
  5
95A
330
30D
100
AcDbEntity
  8
0
  6
Continuous
 62
     7
100
AcDbText
 10
410.2500000000001
 20
-688.9999999999998
 30
0.0
 40
12.5
  1
ｏ
 41
0.833
  7
BIGFONT
100
AcDbText
  0
TEXT
  5
95B
330
30D
100
AcDbEntity
  8
0
  6
Continuous
 62
     7
100
AcDbText
 10
418.75
 20
-688.9999999999998
 30
0.0
 40
12.5
  1
ｎ
 41
0.833
  7
BIGFONT
100
AcDbText
  0
INSERT
  5
95C
330
30D
100
AcDbEntity
  8
0
  6
Continuous
 62
     2
100
AcDbBlockReference
  2
KVK
 10
0.0000000000001705
 20
0.0
 30
0.0
 41
4.999999999999999
 42
4.999999999999999
 43
4.999999999999999
  0
LINE
  5
95D
330
30D
100
AcDbEntity
  8
0
 62
     3
100
AcDbLine
 10
-329.9999999999997
 20
-599.9999999999999
 30
0.0
 11
-179.9999999999998
 21
-599.9999999999999
 31
0.0
  0
TEXT
  5
95E
330
30D
100
AcDbEntity
  8
0
  6
Continuous
 62
     7
100
AcDbText
 10
-413.7499999999998
 20
-595.2843884034495
 30
0.0
 40
15.0
  1
製    図
 41
0.833
  7
BIGFONT
100
AcDbText
  0
TEXT
  5
95F
330
30D
100
AcDbEntity
  8
0
  6
Continuous
 62
     7
100
AcDbText
 10
-405.9999999999998
 20
-618.0037515529201
 30
0.0
 40
12.5
  1
Ｄ
 41
0.833
  7
BIGFONT
100
AcDbText
  0
TEXT
  5
960
330
30D
100
AcDbEntity
  8
0
  6
Continuous
 62
     7
100
AcDbText
 10
-397.2499999999998
 20
-618.0037515529201
 30
0.0
 40
12.5
  1
ｒ
 41
0.833
  7
BIGFONT
100
AcDbText
  0
TEXT
  5
961
330
30D
100
AcDbEntity
  8
0
  6
Continuous
 62
     7
100
AcDbText
 10
-390.4999999999997
 20
-618.0037515529201
 30
0.0
 40
12.5
  1
ａ
 41
0.833
  7
BIGFONT
100
AcDbText
  0
TEXT
  5
962
330
30D
100
AcDbEntity
  8
0
  6
Continuous
 62
     7
100
AcDbText
 10
-381.9999999999998
 20
-618.0037515529201
 30
0.0
 40
12.5
  1
ｗ
 41
0.833
  7
BIGFONT
100
AcDbText
  0
TEXT
  5
963
330
30D
100
AcDbEntity
  8
0
  6
Continuous
 62
     7
100
AcDbText
 10
-372.4999999999998
 20
-618.0037515529201
 30
0.0
 40
12.5
  1
ｎ
 41
0.833
  7
BIGFONT
100
AcDbText
  0
LINE
  5
964
330
30D
100
AcDbEntity
  8
0
 62
     3
100
AcDbLine
 10
100.0000000000001
 20
-629.9999999999998
 30
0.0
 11
100.0000000000001
 21
-569.9999999999999
 31
0.0
  0
TEXT
  5
965
330
30D
100
AcDbEntity
  8
0
  6
Continuous
 62
     7
100
AcDbText
 10
20.00000000000017
 20
-593.4999999999997
 30
0.0
 40
15.0
  1
図    名
 41
0.833
  7
BIGFONT
100
AcDbText
  0
ENDBLK
  5
421
330
30D
100
AcDbEntity
  8
0
100
AcDbBlockEnd
  0
BLOCK
  5
488
330
484
100
AcDbEntity
  8
0
 62
     2
100
AcDbBlockBegin
  2
S36
 70
     0
 10
0.0
 20
0.0
 30
0.0
  3
S36
  1

  0
TEXT
  5
485
330
484
100
AcDbEntity
  8
BALN
100
AcDbText
 10
23.75
 20
30.0
 30
0.0
 40
25.0
  1
１
 41
0.833
  7
BIGFONT
100
AcDbText
  0
LINE
  5
486
330
484
100
AcDbEntity
  8
BALN
  6
CONTINUOUS-S
 62
     4
100
AcDbLine
 10
66.25
 20
50.0
 30
0.0
 11
23.75
 21
10.0
 31
0.0
  0
TEXT
  5
487
330
484
100
AcDbEntity
  8
BALN
100
AcDbText
 10
41.25
 20
5.0
 30
0.0
 40
25.0
  1
５
 41
0.833
  7
BIGFONT
100
AcDbText
  0
ENDBLK
  5
489
330
484
100
AcDbEntity
  8
0
 62
     2
100
AcDbBlockEnd
  0
BLOCK
  5
4A5
330
4A1
100
AcDbEntity
  8
0
100
AcDbBlockBegin
  2
_OPEN
 70
     0
 10
0.0
 20
0.0
 30
0.0
  3
_OPEN
  1

  0
LINE
  5
4A2
330
4A1
100
AcDbEntity
  8
0
  6
ByBlock
 62
     0
100
AcDbLine
 10
-1.0
 20
0.1666666666666666
 30
0.0
 11
0.0
 21
0.0
 31
0.0
  0
LINE
  5
4A3
330
4A1
100
AcDbEntity
  8
0
  6
ByBlock
 62
     0
100
AcDbLine
 10
0.0
 20
0.0
 30
0.0
 11
-1.0
 21
-0.1666666666666666
 31
0.0
  0
LINE
  5
4A4
330
4A1
100
AcDbEntity
  8
0
  6
ByBlock
 62
     0
100
AcDbLine
 10
0.0
 20
0.0
 30
0.0
 11
-1.0
 21
0.0
 31
0.0
  0
ENDBLK
  5
4A6
330
4A1
100
AcDbEntity
  8
0
100
AcDbBlockEnd
  0
BLOCK
  5
76B
330
76A
100
AcDbEntity
  8
0
 62
     2
100
AcDbBlockBegin
  2
KVK
 70
     0
 10
0.0
 20
0.0
 30
0.0
  3
KVK
  1

  0
HATCH
  5
76C
330
76A
100
AcDbEntity
  8
0
  6
Continuous
 62
     7
100
AcDbHatch
 10
0.0
 20
0.0
 30
0.0
210
0.0
220
0.0
230
1.0
  2
SOLID
 70
     1
 71
     1
 91
        1
 92
        1
 93
       12
 72
     1
 10
-84.0
 20
-135.5
 11
-84.0
 21
-129.0
 72
     1
 10
-84.0
 20
-129.0
 11
-82.5
 21
-129.0
 72
     1
 10
-82.5
 20
-129.0
 11
-82.5
 21
-131.301182272253
 72
     1
 10
-82.5
 20
-131.301182272253
 11
-80.56700689130741
 21
-129.0
 72
     1
 10
-80.56700689130741
 20
-129.0
 11
-78.67299310869258
 21
-129.0
 72
     1
 10
-78.67299310869258
 20
-129.0
 11
-80.50454112829113
 21
-131.1804143090459
 72
     1
 10
-80.50454112829113
 20
-131.1804143090459
 11
-78.14316761723621
 21
-135.5
 72
     1
 10
-78.14316761723621
 20
-135.5
 11
-79.85349904943046
 21
-135.5
 72
     1
 10
-79.85349904943046
 20
-135.5
 11
-81.54060728433186
 21
-132.4138263995705
 72
     1
 10
-81.54060728433186
 20
-132.4138263995705
 11
-82.5
 21
-133.5559605848898
 72
     1
 10
-82.5
 20
-133.5559605848898
 11
-82.5
 21
-135.5
 72
     1
 10
-82.5
 20
-135.5
 11
-84.0
 21
-135.5
 97
       12
330
77E
330
77D
330
775
330
77C
330
77B
330
774
330
779
330
778
330
777
330
77A
330
776
330
77F
 75
     0
 76
     1
 98
        1
 10
-84.50000000000001
 20
-136.0
  0
LINE
  5
76D
102
{ACAD_REACTORS
330
79F
102
}
330
76A
100
AcDbEntity
  8
0
  6
Continuous
 62
     7
100
AcDbLine
 10
-74.23733164343321
 20
-135.5
 30
0.0
 11
-72.71266835656678
 21
-135.5
 31
0.0
  0
LINE
  5
76E
102
{ACAD_REACTORS
330
79F
102
}
330
76A
100
AcDbEntity
  8
0
  6
Continuous
 62
     7
100
AcDbLine
 10
-72.71266835656678
 20
-135.5
 30
0.0
 11
-70.58933502323345
 21
-129.0
 31
0.0
  0
LINE
  5
76F
102
{ACAD_REACTORS
330
79F
102
}
330
76A
100
AcDbEntity
  8
0
  6
Continuous
 62
     7
100
AcDbLine
 10
-72.08733164343321
 20
-129.0
 30
0.0
 11
-70.58933502323345
 21
-129.0
 31
0.0
  0
LINE
  5
770
102
{ACAD_REACTORS
330
79F
102
}
330
76A
100
AcDbEntity
  8
0
  6
Continuous
 62
     7
100
AcDbLine
 10
-73.475
 20
-133.2479643568371
 30
0.0
 11
-72.08733164343321
 21
-129.0
 31
0.0
  0
LINE
  5
771
102
{ACAD_REACTORS
330
79F
102
}
330
76A
100
AcDbEntity
  8
0
  6
Continuous
 62
     7
100
AcDbLine
 10
-76.36066497676655
 20
-129.0
 30
0.0
 11
-74.86266835656678
 21
-129.0
 31
0.0
  0
LINE
  5
772
102
{ACAD_REACTORS
330
79F
102
}
330
76A
100
AcDbEntity
  8
0
  6
Continuous
 62
     7
100
AcDbLine
 10
-73.475
 20
-133.2479643568371
 30
0.0
 11
-74.86266835656678
 21
-129.0
 31
0.0
  0
LINE
  5
773
102
{ACAD_REACTORS
330
79F
102
}
330
76A
100
AcDbEntity
  8
0
  6
Continuous
 62
     7
100
AcDbLine
 10
-74.23733164343321
 20
-135.5
 30
0.0
 11
-76.36066497676655
 21
-129.0
 31
0.0
  0
LINE
  5
774
102
{ACAD_REACTORS
330
76C
102
}
330
76A
100
AcDbEntity
  8
0
  6
Continuous
 62
     7
100
AcDbLine
 10
-80.50454112829113
 20
-131.1804143090459
 30
0.0
 11
-78.67299310869258
 21
-129.0
 31
0.0
  0
LINE
  5
775
102
{ACAD_REACTORS
330
76C
102
}
330
76A
100
AcDbEntity
  8
0
  6
Continuous
 62
     7
100
AcDbLine
 10
-82.5
 20
-129.0
 30
0.0
 11
-82.5
 21
-131.301182272253
 31
0.0
  0
LINE
  5
776
102
{ACAD_REACTORS
330
76C
102
}
330
76A
100
AcDbEntity
  8
0
  6
Continuous
 62
     7
100
AcDbLine
 10
-82.5
 20
-135.5
 30
0.0
 11
-82.5
 21
-133.5559605848898
 31
0.0
  0
LINE
  5
777
102
{ACAD_REACTORS
330
76C
102
}
330
76A
100
AcDbEntity
  8
0
  6
Continuous
 62
     7
100
AcDbLine
 10
-81.54060728433186
 20
-132.4138263995705
 30
0.0
 11
-79.85349904943046
 21
-135.5
 31
0.0
  0
LINE
  5
778
102
{ACAD_REACTORS
330
76C
102
}
330
76A
100
AcDbEntity
  8
0
  6
Continuous
 62
     7
100
AcDbLine
 10
-78.14316761723621
 20
-135.5
 30
0.0
 11
-79.85349904943046
 21
-135.5
 31
0.0
  0
LINE
  5
779
102
{ACAD_REACTORS
330
76C
102
}
330
76A
100
AcDbEntity
  8
0
  6
Continuous
 62
     7
100
AcDbLine
 10
-80.50454112829113
 20
-131.1804143090459
 30
0.0
 11
-78.14316761723621
 21
-135.5
 31
0.0
  0
LINE
  5
77A
102
{ACAD_REACTORS
330
76C
102
}
330
76A
100
AcDbEntity
  8
0
  6
Continuous
 62
     7
100
AcDbLine
 10
-82.5
 20
-133.5559605848898
 30
0.0
 11
-81.54060728433186
 21
-132.4138263995705
 31
0.0
  0
LINE
  5
77B
102
{ACAD_REACTORS
330
76C
102
}
330
76A
100
AcDbEntity
  8
0
  6
Continuous
 62
     7
100
AcDbLine
 10
-80.56700689130741
 20
-129.0
 30
0.0
 11
-78.67299310869258
 21
-129.0
 31
0.0
  0
LINE
  5
77C
102
{ACAD_REACTORS
330
76C
102
}
330
76A
100
AcDbEntity
  8
0
  6
Continuous
 62
     7
100
AcDbLine
 10
-82.5
 20
-131.301182272253
 30
0.0
 11
-80.56700689130741
 21
-129.0
 31
0.0
  0
LINE
  5
77D
102
{ACAD_REACTORS
330
76C
102
}
330
76A
100
AcDbEntity
  8
0
  6
Continuous
 62
     7
100
AcDbLine
 10
-84.0
 20
-129.0
 30
0.0
 11
-82.5
 21
-129.0
 31
0.0
  0
LINE
  5
77E
102
{ACAD_REACTORS
330
76C
102
}
330
76A
100
AcDbEntity
  8
0
  6
Continuous
 62
     7
100
AcDbLine
 10
-84.0
 20
-135.5
 30
0.0
 11
-84.0
 21
-129.0
 31
0.0
  0
LINE
  5
77F
102
{ACAD_REACTORS
330
76C
102
}
330
76A
100
AcDbEntity
  8
0
  6
Continuous
 62
     7
100
AcDbLine
 10
-82.5
 20
-135.5
 30
0.0
 11
-84.0
 21
-135.5
 31
0.0
  0
LINE
  5
780
330
76A
100
AcDbEntity
  8
0
  6
Continuous
 62
     7
100
AcDbLine
 10
-66.47836538461539
 20
-133.295673076923
 30
0.0
 11
-65.0
 21
-136.0
 31
0.0
  0
LINE
  5
781
330
76A
100
AcDbEntity
  8
0
  6
Continuous
 62
     7
100
AcDbLine
 10
-66.84999999999999
 20
-133.7380952380952
 30
0.0
 11
-66.47836538461539
 21
-133.295673076923
 31
0.0
  0
LINE
  5
782
330
76A
100
AcDbEntity
  8
0
  6
Continuous
 62
     7
100
AcDbLine
 10
-64.75192307692307
 20
-131.2403846153846
 30
0.0
 11
-62.14999999999999
 21
-136.0
 31
0.0
  0
LINE
  5
783
330
76A
100
AcDbEntity
  8
0
  6
Continuous
 62
     7
100
AcDbLine
 10
-66.84999999999999
 20
-129.9285714285714
 30
0.0
 11
-65.65000000000001
 21
-128.5
 31
0.0
  0
LINE
  5
784
330
76A
100
AcDbEntity
  8
0
  6
Continuous
 62
     7
100
AcDbLine
 10
-65.65000000000001
 20
-128.5
 30
0.0
 11
-62.45
 21
-128.5
 31
0.0
  0
LINE
  5
785
330
76A
100
AcDbEntity
  8
0
  6
Continuous
 62
     7
100
AcDbLine
 10
-62.14999999999999
 20
-136.0
 30
0.0
 11
-65.0
 21
-136.0
 31
0.0
  0
LINE
  5
786
330
76A
100
AcDbEntity
  8
0
  6
Continuous
 62
     7
100
AcDbLine
 10
-69.34999999999999
 20
-128.5
 30
0.0
 11
-66.84999999999999
 21
-128.5
 31
0.0
  0
LINE
  5
787
330
76A
100
AcDbEntity
  8
0
  6
Continuous
 62
     7
100
AcDbLine
 10
-66.84999999999999
 20
-128.5
 30
0.0
 11
-66.84999999999999
 21
-129.9285714285714
 31
0.0
  0
LINE
  5
788
330
76A
100
AcDbEntity
  8
0
  6
Continuous
 62
     7
100
AcDbLine
 10
-66.84999999999999
 20
-136.0
 30
0.0
 11
-66.84999999999999
 21
-133.7380952380952
 31
0.0
  0
LINE
  5
789
330
76A
100
AcDbEntity
  8
0
  6
Continuous
 62
     7
100
AcDbLine
 10
-66.84999999999999
 20
-136.0
 30
0.0
 11
-69.34999999999999
 21
-136.0
 31
0.0
  0
LINE
  5
78A
330
76A
100
AcDbEntity
  8
0
  6
Continuous
 62
     7
100
AcDbLine
 10
-69.34999999999999
 20
-136.0
 30
0.0
 11
-69.34999999999999
 21
-128.5
 31
0.0
  0
LINE
  5
78B
330
76A
100
AcDbEntity
  8
0
  6
Continuous
 62
     7
100
AcDbLine
 10
-64.75192307692307
 20
-131.2403846153846
 30
0.0
 11
-62.45
 21
-128.5
 31
0.0
  0
LINE
  5
78C
330
76A
100
AcDbEntity
  8
0
  6
Continuous
 62
     7
100
AcDbLine
 10
-72.45
 20
-128.5
 30
0.0
 11
-69.90000000000001
 21
-128.5
 31
0.0
  0
LINE
  5
78D
330
76A
100
AcDbEntity
  8
0
  6
Continuous
 62
     7
100
AcDbLine
 10
-73.475
 20
-131.6377551020408
 30
0.0
 11
-72.45
 21
-128.5
 31
0.0
  0
LINE
  5
78E
330
76A
100
AcDbEntity
  8
0
  6
Continuous
 62
     7
100
AcDbLine
 10
-74.59999999999999
 20
-136.0
 30
0.0
 11
-72.35000000000001
 21
-136.0
 31
0.0
  0
LINE
  5
78F
330
76A
100
AcDbEntity
  8
0
  6
Continuous
 62
     7
100
AcDbLine
 10
-72.35000000000001
 20
-136.0
 30
0.0
 11
-69.90000000000001
 21
-128.5
 31
0.0
  0
LINE
  5
790
330
76A
100
AcDbEntity
  8
0
  6
Continuous
 62
     7
100
AcDbLine
 10
-73.475
 20
-131.6377551020408
 30
0.0
 11
-74.5
 21
-128.5
 31
0.0
  0
LINE
  5
791
330
76A
100
AcDbEntity
  8
0
  6
Continuous
 62
     7
100
AcDbLine
 10
-77.05
 20
-128.5
 30
0.0
 11
-74.5
 21
-128.5
 31
0.0
  0
LINE
  5
792
330
76A
100
AcDbEntity
  8
0
  6
Continuous
 62
     7
100
AcDbLine
 10
-74.59999999999999
 20
-136.0
 30
0.0
 11
-77.05
 21
-128.5
 31
0.0
  0
LINE
  5
793
330
76A
100
AcDbEntity
  8
0
  6
Continuous
 62
     7
100
AcDbLine
 10
-79.90192307692308
 20
-131.2403846153846
 30
0.0
 11
-77.59999999999999
 21
-128.5
 31
0.0
  0
LINE
  5
794
330
76A
100
AcDbEntity
  8
0
  6
Continuous
 62
     7
100
AcDbLine
 10
-84.50000000000001
 20
-136.0
 30
0.0
 11
-84.50000000000001
 21
-128.5
 31
0.0
  0
LINE
  5
795
330
76A
100
AcDbEntity
  8
0
  6
Continuous
 62
     7
100
AcDbLine
 10
-82.0
 20
-136.0
 30
0.0
 11
-84.50000000000001
 21
-136.0
 31
0.0
  0
LINE
  5
796
330
76A
100
AcDbEntity
  8
0
  6
Continuous
 62
     7
100
AcDbLine
 10
-82.0
 20
-136.0
 30
0.0
 11
-82.0
 21
-133.7380952380952
 31
0.0
  0
LINE
  5
797
330
76A
100
AcDbEntity
  8
0
  6
Continuous
 62
     7
100
AcDbLine
 10
-82.0
 20
-128.5
 30
0.0
 11
-82.0
 21
-129.9285714285714
 31
0.0
  0
LINE
  5
798
330
76A
100
AcDbEntity
  8
0
  6
Continuous
 62
     7
100
AcDbLine
 10
-84.50000000000001
 20
-128.5
 30
0.0
 11
-82.0
 21
-128.5
 31
0.0
  0
LINE
  5
799
330
76A
100
AcDbEntity
  8
0
  6
Continuous
 62
     7
100
AcDbLine
 10
-77.3
 20
-136.0
 30
0.0
 11
-80.15
 21
-136.0
 31
0.0
  0
LINE
  5
79A
330
76A
100
AcDbEntity
  8
0
  6
Continuous
 62
     7
100
AcDbLine
 10
-80.8
 20
-128.5
 30
0.0
 11
-77.59999999999999
 21
-128.5
 31
0.0
  0
LINE
  5
79B
330
76A
100
AcDbEntity
  8
0
  6
Continuous
 62
     7
100
AcDbLine
 10
-82.0
 20
-129.9285714285714
 30
0.0
 11
-80.8
 21
-128.5
 31
0.0
  0
LINE
  5
79C
330
76A
100
AcDbEntity
  8
0
  6
Continuous
 62
     7
100
AcDbLine
 10
-79.90192307692308
 20
-131.2403846153846
 30
0.0
 11
-77.3
 21
-136.0
 31
0.0
  0
LINE
  5
79D
330
76A
100
AcDbEntity
  8
0
  6
Continuous
 62
     7
100
AcDbLine
 10
-82.0
 20
-133.7380952380952
 30
0.0
 11
-81.62836538461538
 21
-133.295673076923
 31
0.0
  0
LINE
  5
79E
330
76A
100
AcDbEntity
  8
0
  6
Continuous
 62
     7
100
AcDbLine
 10
-81.62836538461538
 20
-133.295673076923
 30
0.0
 11
-80.15
 21
-136.0
 31
0.0
  0
HATCH
  5
79F
330
76A
100
AcDbEntity
  8
0
  6
Continuous
 62
     7
100
AcDbHatch
 10
0.0
 20
0.0
 30
0.0
210
0.0
220
0.0
230
1.0
  2
SOLID
 70
     1
 71
     1
 91
        1
 92
        1
 93
        7
 72
     1
 10
-74.23733164343321
 20
-135.5
 11
-76.36066497676655
 21
-129.0
 72
     1
 10
-76.36066497676655
 20
-129.0
 11
-74.86266835656678
 21
-129.0
 72
     1
 10
-74.86266835656678
 20
-129.0
 11
-73.475
 21
-133.2479643568371
 72
     1
 10
-73.475
 20
-133.2479643568371
 11
-72.08733164343321
 21
-129.0
 72
     1
 10
-72.08733164343321
 20
-129.0
 11
-70.58933502323345
 21
-129.0
 72
     1
 10
-70.58933502323345
 20
-129.0
 11
-72.71266835656678
 21
-135.5
 72
     1
 10
-72.71266835656678
 20
-135.5
 11
-74.23733164343321
 21
-135.5
 97
        7
330
773
330
771
330
772
330
770
330
76F
330
76E
330
76D
 75
     0
 76
     1
 98
        1
 10
0.0
 20
0.0
  0
HATCH
  5
7A0
330
76A
100
AcDbEntity
  8
0
  6
Continuous
 62
     7
100
AcDbHatch
 10
0.0
 20
0.0
 30
0.0
210
0.0
220
0.0
230
1.0
  2
SOLID
 70
     1
 71
     0
 91
        1
 92
        1
 93
       12
 72
     1
 10
-68.84999999999999
 20
-135.5
 11
-68.84999999999999
 21
-129.0
 72
     1
 10
-68.84999999999999
 20
-129.0
 11
-67.34999999999999
 21
-129.0
 72
     1
 10
-67.34999999999999
 20
-129.0
 11
-67.34999999999999
 21
-131.301182272253
 72
     1
 10
-67.34999999999999
 20
-131.301182272253
 11
-65.41700689130741
 21
-129.0
 72
     1
 10
-65.41700689130741
 20
-129.0
 11
-63.52299310869257
 21
-129.0
 72
     1
 10
-63.52299310869257
 20
-129.0
 11
-65.35454112829111
 21
-131.1804143090459
 72
     1
 10
-65.35454112829111
 20
-131.1804143090459
 11
-62.99316761723621
 21
-135.5
 72
     1
 10
-62.99316761723621
 20
-135.5
 11
-64.70349904943045
 21
-135.5
 72
     1
 10
-64.70349904943045
 20
-135.5
 11
-66.39060728433186
 21
-132.4138263995705
 72
     1
 10
-66.39060728433186
 20
-132.4138263995705
 11
-67.34999999999999
 21
-133.5559605848898
 72
     1
 10
-67.34999999999999
 20
-133.5559605848898
 11
-67.34999999999999
 21
-135.5
 72
     1
 10
-67.34999999999999
 20
-135.5
 11
-68.84999999999999
 21
-135.5
 97
        0
 75
     0
 76
     1
 98
        1
 10
-69.34999999999999
 20
-136.0
  0
ENDBLK
  5
7A1
330
76A
100
AcDbEntity
  8
0
 62
     2
100
AcDbBlockEnd
  0
BLOCK
  5
4760
330
475F
100
AcDbEntity
  8
0
 62
     4
100
AcDbBlockBegin
  2
*D4
 70
     1
 10
0.0
 20
0.0
 30
0.0
  3
*D4
  1

  0
LINE
  5
497C
330
475F
100
AcDbEntity
  8
BALN
 62
     4
370
    -2
100
AcDbLine
 10
-117.1167891517657
 20
309.5520004283408
 30
0.0
 11
-168.4479778753983
 21
352.1251477673081
 31
0.0
  0
LINE
  5
497D
330
475F
100
AcDbEntity
  8
BALN
 62
     4
370
    -2
100
AcDbLine
 10
-211.5520221246046
 20
387.8748522326944
 30
0.0
 11
-217.3248851936948
 21
392.6627590807372
 31
0.0
  0
MTEXT
  5
497E
102
{ACAD_XDICTIONARY
360
4C1C
102
}
330
475F
100
AcDbEntity
  8
BALN
100
AcDbMText
 10
-123.4854058406156
 20
328.4754257979853
 30
0.0
 40
15.0
 41
0.0
 71
     5
 72
     1
  1
\U+220541
  7
BIGFONT
 11
0.7697150758786855
 21
-0.6383875797390403
 31
0.0
 73
     1
 44
1.0
1001
ACAD
1000
MTEXTBEGIN
1070
    73
1070
     1
1070
    44
1040
1.0
1070
    74
1070
     0
1000
MTEXTEND
  0
LINE
  5
497F
330
475F
100
AcDbEntity
  8
BALN
 62
     4
370
    -2
100
AcDbLine
 10
-205.7791590555145
 20
383.0869453846516
 30
0.0
 11
-174.2208409444884
 21
356.9130546153509
 31
0.0
  0
INSERT
  5
4980
330
475F
100
AcDbEntity
  8
BALN
 62
     4
370
    -2
100
AcDbBlockReference
  2
_OPEN
 10
-205.7791590555145
 20
383.0869453846516
 30
0.0
 41
7.5
 42
7.5
 43
7.5
 50
320.3283098073752
  0
INSERT
  5
4981
330
475F
100
AcDbEntity
  8
BALN
 62
     4
370
    -2
100
AcDbBlockReference
  2
_OPEN
 10
-174.2208409444884
 20
356.9130546153509
 30
0.0
 41
7.5
 42
7.5
 43
7.5
 50
140.3283098073752
  0
POINT
  5
4982
330
475F
100
AcDbEntity
  8
DEFPOINTS
 62
     0
100
AcDbPoint
 10
-174.2208409444884
 20
356.9130546153509
 30
0.0
  0
POINT
  5
4983
330
475F
100
AcDbEntity
  8
DEFPOINTS
 62
     0
100
AcDbPoint
 10
-205.7791590555145
 20
383.0869453846516
 30
0.0
  0
ENDBLK
  5
4761
330
475F
100
AcDbEntity
  8
0
 62
     4
100
AcDbBlockEnd
  0
BLOCK
  5
476B
330
476A
100
AcDbEntity
  8
0
 62
     4
100
AcDbBlockBegin
  2
*D5
 70
     1
 10
0.0
 20
0.0
 30
0.0
  3
*D5
  1

  0
LINE
  5
4AA0
330
476A
100
AcDbEntity
  8
BALN
 62
     4
370
    -2
100
AcDbLine
 10
-190.0
 20
210.0000000000012
 30
0.0
 11
59.99999999999996
 21
210.0000000000011
 31
0.0
  0
LINE
  5
4AA1
330
476A
100
AcDbEntity
  8
BALN
 62
     4
370
    -2
100
AcDbLine
 10
-189.9999999999999
 20
530.0000000000011
 30
0.0
 11
60.00000000000003
 21
530.0000000000011
 31
0.0
  0
LINE
  5
4AA2
330
476A
100
AcDbEntity
  8
BALN
 62
     4
370
    -2
100
AcDbLine
 10
49.99999999999996
 20
217.5000000000011
 30
0.0
 11
50.00000000000002
 21
522.5000000000011
 31
0.0
  0
INSERT
  5
4AA3
330
476A
100
AcDbEntity
  8
BALN
 62
     4
370
    -2
100
AcDbBlockReference
  2
_OPEN
 10
49.99999999999996
 20
210.0000000000011
 30
0.0
 41
7.5
 42
7.5
 43
7.5
 50
270.0
  0
INSERT
  5
4AA4
330
476A
100
AcDbEntity
  8
BALN
 62
     4
370
    -2
100
AcDbBlockReference
  2
_OPEN
 10
50.00000000000003
 20
530.0000000000011
 30
0.0
 41
7.5
 42
7.5
 43
7.5
 50
90.0
  0
MTEXT
  5
4AA5
330
476A
100
AcDbEntity
  8
BALN
100
AcDbMText
 10
39.49999999999993
 20
370.2315926973089
 30
0.0
 40
15.0
 41
0.0
 71
     5
 72
     1
  1
（%%c320）
  7
BIGFONT
 11
0.0000000000000001
 21
1.0
 31
0.0
 73
     1
 44
1.0
1001
ACAD
1000
MTEXTBEGIN
1070
    73
1070
     1
1070
    44
1040
1.0
1070
    74
1070
     0
1000
MTEXTEND
  0
POINT
  5
4AA6
330
476A
100
AcDbEntity
  8
DEFPOINTS
 62
     0
100
AcDbPoint
 10
-190.0
 20
210.0000000000012
 30
0.0
  0
POINT
  5
4AA7
330
476A
100
AcDbEntity
  8
DEFPOINTS
 62
     0
100
AcDbPoint
 10
-189.9999999999999
 20
530.0000000000011
 30
0.0
  0
POINT
  5
4AA8
330
476A
100
AcDbEntity
  8
DEFPOINTS
 62
     0
100
AcDbPoint
 10
50.00000000000003
 20
530.0000000000011
 30
0.0
  0
ENDBLK
  5
476C
330
476A
100
AcDbEntity
  8
0
 62
     4
100
AcDbBlockEnd
  0
BLOCK
  5
4777
330
4776
100
AcDbEntity
  8
0
 62
     4
100
AcDbBlockBegin
  2
*D6
 70
     1
 10
0.0
 20
0.0
 30
0.0
  3
*D6
  1

  0
LINE
  5
4AB5
330
4776
100
AcDbEntity
  8
BALN
 62
     4
370
    -2
100
AcDbLine
 10
190.0
 20
213.0000000000015
 30
0.0
 11
190.0
 21
120.0000000000015
 31
0.0
  0
LINE
  5
4AB6
330
4776
100
AcDbEntity
  8
BALN
 62
     4
370
    -2
100
AcDbLine
 10
300.0
 20
320.0000000000015
 30
0.0
 11
300.0
 21
120.0000000000015
 31
0.0
  0
LINE
  5
4AB7
330
4776
100
AcDbEntity
  8
BALN
 62
     4
370
    -2
100
AcDbLine
 10
197.5
 20
130.0000000000014
 30
0.0
 11
292.5
 21
130.0000000000014
 31
0.0
  0
INSERT
  5
4AB8
330
4776
100
AcDbEntity
  8
BALN
 62
     4
370
    -2
100
AcDbBlockReference
  2
_OPEN
 10
190.0
 20
130.0000000000014
 30
0.0
 41
7.5
 42
7.5
 43
7.5
 50
180.0
  0
INSERT
  5
4AB9
330
4776
100
AcDbEntity
  8
BALN
 62
     4
370
    -2
100
AcDbBlockReference
  2
_OPEN
 10
300.0
 20
130.0000000000014
 30
0.0
 41
7.5
 42
7.5
 43
7.5
  0
MTEXT
  5
4ABA
330
4776
100
AcDbEntity
  8
BALN
100
AcDbMText
 10
245.0
 20
140.5000000000015
 30
0.0
 40
15.0
 41
0.0
 71
     5
 72
     1
  1
（110）
  7
BIGFONT
 73
     1
 44
1.0
1001
ACAD
1000
MTEXTBEGIN
1070
    73
1070
     1
1070
    44
1040
1.0
1070
    74
1070
     0
1000
MTEXTEND
  0
POINT
  5
4ABB
330
4776
100
AcDbEntity
  8
DEFPOINTS
 62
     0
100
AcDbPoint
 10
190.0
 20
213.0000000000015
 30
0.0
  0
POINT
  5
4ABC
330
4776
100
AcDbEntity
  8
DEFPOINTS
 62
     0
100
AcDbPoint
 10
300.0
 20
320.0000000000015
 30
0.0
  0
POINT
  5
4ABD
330
4776
100
AcDbEntity
  8
DEFPOINTS
 62
     0
100
AcDbPoint
 10
300.0
 20
130.0000000000014
 30
0.0
  0
ENDBLK
  5
4778
330
4776
100
AcDbEntity
  8
0
 62
     4
100
AcDbBlockEnd
  0
BLOCK
  5
4783
330
4782
100
AcDbEntity
  8
0
 62
     4
100
AcDbBlockBegin
  2
*D7
 70
     1
 10
0.0
 20
0.0
 30
0.0
  3
*D7
  1

  0
LINE
  5
4AC7
330
4782
100
AcDbEntity
  8
BALN
 62
     4
370
    -2
100
AcDbLine
 10
300.0
 20
320.0000000000015
 30
0.0
 11
390.0000000000001
 21
320.0000000000014
 31
0.0
  0
LINE
  5
4AC8
330
4782
100
AcDbEntity
  8
BALN
 62
     4
370
    -2
100
AcDbLine
 10
300.0
 20
420.0000000000017
 30
0.0
 11
390.0000000000001
 21
420.0000000000016
 31
0.0
  0
LINE
  5
4AC9
330
4782
100
AcDbEntity
  8
BALN
 62
     4
370
    -2
100
AcDbLine
 10
380.0000000000001
 20
327.5000000000015
 30
0.0
 11
380.0000000000001
 21
412.5000000000016
 31
0.0
  0
INSERT
  5
4ACA
330
4782
100
AcDbEntity
  8
BALN
 62
     4
370
    -2
100
AcDbBlockReference
  2
_OPEN
 10
380.0000000000001
 20
320.0000000000015
 30
0.0
 41
7.5
 42
7.5
 43
7.5
 50
270.0
  0
INSERT
  5
4ACB
330
4782
100
AcDbEntity
  8
BALN
 62
     4
370
    -2
100
AcDbBlockReference
  2
_OPEN
 10
380.0000000000001
 20
420.0000000000017
 30
0.0
 41
7.5
 42
7.5
 43
7.5
 50
90.0
  0
MTEXT
  5
4ACC
330
4782
100
AcDbEntity
  8
BALN
100
AcDbMText
 10
369.5
 20
370.0000000000016
 30
0.0
 40
15.0
 41
0.0
 71
     5
 72
     1
  1
（%%c100）
  7
BIGFONT
 11
0.0000000000000001
 21
1.0
 31
0.0
 73
     1
 44
1.0
1001
ACAD
1000
MTEXTBEGIN
1070
    73
1070
     1
1070
    44
1040
1.0
1070
    74
1070
     0
1000
MTEXTEND
  0
POINT
  5
4ACD
330
4782
100
AcDbEntity
  8
DEFPOINTS
 62
     0
100
AcDbPoint
 10
300.0
 20
320.0000000000015
 30
0.0
  0
POINT
  5
4ACE
330
4782
100
AcDbEntity
  8
DEFPOINTS
 62
     0
100
AcDbPoint
 10
300.0
 20
420.0000000000017
 30
0.0
  0
POINT
  5
4ACF
330
4782
100
AcDbEntity
  8
DEFPOINTS
 62
     0
100
AcDbPoint
 10
380.0000000000001
 20
420.0000000000017
 30
0.0
  0
ENDBLK
  5
4784
330
4782
100
AcDbEntity
  8
0
 62
     4
100
AcDbBlockEnd
  0
ENDSEC
  0
SECTION
  2
ENTITIES
  0
TEXT
  5
470
330
1A
100
AcDbEntity
  8
BALN
100
AcDbText
 10
117.185
 20
-381.25
 30
0.0
 40
15.625
  1
　　　　　　　　　　　　　
 41
0.833
  7
BIGFONT
100
AcDbText
  0
TEXT
  5
471
330
1A
100
AcDbEntity
  8
BALN
100
AcDbText
 10
331.51
 20
-403.125
 30
0.0
 40
13.02
  1
　　　　　　　　
 41
0.833
  7
BIGFONT
100
AcDbText
  0
TEXT
  5
472
330
1A
100
AcDbEntity
  8
BALN
100
AcDbText
 10
117.185
 20
-425.0
 30
0.0
 40
15.625
  1
　　　　　　　　　　　　　
 41
0.833
  7
BIGFONT
100
AcDbText
  0
TEXT
  5
84E
330
1A
100
AcDbEntity
  8
BALN
100
AcDbText
 10
125.0000000000003
 20
-620.0
 30
0.0
 40
30.0
  1
美術工芸手洗鉢
 41
0.833
  7
BIGFONT
100
AcDbText
  0
TEXT
  5
84F
330
1A
100
AcDbEntity
  8
BALN
100
AcDbText
 10
365.0000000000003
 20
-671.25
 30
0.0
 40
30.0
  1
ＷＡ
 41
0.833
  7
BIGFONT
100
AcDbText
  0
TEXT
  5
850
330
1A
100
AcDbEntity
  8
BALN
100
AcDbText
 10
125.0000000000003
 20
-678.75
 30
0.0
 40
37.5
  1
４２２０２５
 41
0.833
  7
BIGFONT
100
AcDbText
  0
INSERT
  5
851
330
1A
100
AcDbEntity
  8
BALN
 62
     2
100
AcDbBlockReference
  2
S36
 10
-89.99999999999984
 20
-629.9999999999998
 30
0.0
  0
TEXT
  5
853
330
1A
100
AcDbEntity
  8
BALN
100
AcDbText
 10
-322.4999999999997
 20
-592.4999999999999
 30
0.0
 40
15.0
  1
\U+2019１８．０３．１９
 41
0.833
  7
BIGFONT
100
AcDbText
  0
INSERT
  5
966
330
1A
100
AcDbEntity
  8
0
 62
     4
100
AcDbBlockReference
  2
A4-NEW
 10
0.0
 20
0.0
 30
0.0
  0
TEXT
  5
970
330
1A
100
AcDbEntity
  8
BALN
 62
     7
100
AcDbText
 10
125.0000000000001
 20
-562.5
 30
0.0
 40
15.0
  1
ＫＶ０１Ａ　＊Ａ
 41
0.833
  7
BIGFONT
100
AcDbText
  0
CIRCLE
  5
474B
330
1A
100
AcDbEntity
  8
422025
100
AcDbCircle
 10
-190.0
 20
370.0000000000012
 30
0.0
 40
160.0
  0
LINE
  5
474C
330
1A
100
AcDbEntity
  8
422025
  6
CENTER
 62
     3
100
AcDbLine
 10
-370.0
 20
370.0000000000012
 30
0.0
 11
-10.0
 21
370.0000000000012
 31
0.0
  0
LINE
  5
474D
330
1A
100
AcDbEntity
  8
422025
  6
CENTER
 62
     3
100
AcDbLine
 10
-190.0
 20
190.0000000000012
 30
0.0
 11
-190.0
 21
550.0000000000011
 31
0.0
  0
CIRCLE
  5
474E
330
1A
100
AcDbEntity
  8
422025
100
AcDbCircle
 10
-190.0000000000014
 20
370.0000000000012
 30
0.0
 40
20.5
  0
CIRCLE
  5
474F
330
1A
100
AcDbEntity
  8
422025
100
AcDbCircle
 10
-190.0000000000014
 20
370.0000000000012
 30
0.0
 40
30.0
  0
CIRCLE
  5
4750
330
1A
100
AcDbEntity
  8
422025
100
AcDbCircle
 10
-190.0000000000014
 20
370.0000000000012
 30
0.0
 40
47.94171017225834
  0
CIRCLE
  5
4751
330
1A
100
AcDbEntity
  8
422025
100
AcDbCircle
 10
-190.0000000000014
 20
370.0000000000012
 30
0.0
 40
150.0000000000028
  0
DIMENSION
  5
4752
330
1A
100
AcDbEntity
  8
BALN
 62
     4
100
AcDbDimension
  2
*D4
 10
-205.7791590555145
 20
383.0869453846516
 30
0.0
 11
-130.1884754278755
 21
320.393417501259
 31
0.0
 70
   163
 71
     5
 42
41.0
  3
ITM
100
AcDbDiametricDimension
 15
-174.2208409444884
 25
356.9130546153509
 35
0.0
 40
0.0
1001
ACAD
1000
DSTYLE
1002
{
1070
   179
1070
     8
1070
   271
1070
     8
1002
}
1001
ACAD_DSTYLE_DIMRADIAL_EXTENSION
1070
   387
1070
     1
1070
   388
1040
0.0
1070
   390
1040
0.0
  0
DIMENSION
  5
4753
330
1A
100
AcDbEntity
  8
BALN
 62
     4
100
AcDbDimension
  2
*D5
 10
50.00000000000003
 20
530.0000000000011
 30
0.0
 11
49.99999999999992
 21
370.2315926973089
 31
0.0
 70
   160
  1
（%%c<>）
 71
     5
 42
320.0
  3
ITM
100
AcDbAlignedDimension
 13
-190.0
 23
210.0000000000012
 33
0.0
 14
-189.9999999999999
 24
530.0000000000011
 34
0.0
 50
90.0
100
AcDbRotatedDimension
1001
ACAD
1000
DSTYLE
1002
{
1070
   179
1070
     8
1070
   271
1070
     8
1002
}
  0
LINE
  5
4754
330
1A
100
AcDbEntity
  8
422025
100
AcDbLine
 10
300.0
 20
320.0000000000015
 30
0.0
 11
300.0
 21
420.0000000000017
 31
0.0
  0
LINE
  5
4755
330
1A
100
AcDbEntity
  8
422025
  6
CENTER
 62
     3
100
AcDbLine
 10
170.0
 20
370.0000000000013
 30
0.0
 11
320.0
 21
370.0000000000013
 31
0.0
  0
LINE
  5
4756
330
1A
100
AcDbEntity
  8
422025
100
AcDbLine
 10
190.0
 20
213.0000000000015
 30
0.0
 11
190.0
 21
527.0000000000013
 31
0.0
  0
ARC
  5
4757
330
1A
100
AcDbEntity
  8
422025
100
AcDbCircle
 10
144.6090192697138
 20
362.3563289049429
 30
0.0
 40
160.0
100
AcDbArc
 50
287.9521611951271
 51
338.1747937416641
  0
ARC
  5
4758
330
1A
100
AcDbEntity
  8
422025
100
AcDbCircle
 10
193.0
 20
213.0000000000015
 30
0.0
 40
3.0
100
AcDbArc
 50
180.0
 51
287.9521611951271
  0
LINE
  5
4759
330
1A
100
AcDbEntity
  8
422025
100
AcDbLine
 10
300.0
 20
320.0000000000015
 30
0.0
 11
293.1405969285211
 21
302.8721256389862
 31
0.0
  0
ARC
  5
475A
330
1A
100
AcDbEntity
  8
422025
100
AcDbCircle
 10
144.6090192697138
 20
377.6436710950599
 30
0.0
 40
160.0
100
AcDbArc
 50
21.82520625833584
 51
72.04783880487291
  0
ARC
  5
475B
330
1A
100
AcDbEntity
  8
422025
100
AcDbCircle
 10
193.0
 20
527.0000000000013
 30
0.0
 40
3.0
100
AcDbArc
 50
72.04783880487291
 51
180.0
  0
LINE
  5
475C
330
1A
100
AcDbEntity
  8
422025
100
AcDbLine
 10
300.0
 20
420.0000000000012
 30
0.0
 11
293.1405969285211
 21
437.1278743610166
 31
0.0
  0
DIMENSION
  5
475D
330
1A
100
AcDbEntity
  8
BALN
 62
     4
100
AcDbDimension
  2
*D6
 10
300.0
 20
130.0000000000014
 30
0.0
 11
245.0
 21
130.0000000000014
 31
0.0
 70
   160
  1
（<>）
 71
     5
 42
110.0
  3
ITM
100
AcDbAlignedDimension
 13
190.0
 23
213.0000000000015
 33
0.0
 14
300.0
 24
320.0000000000015
 34
0.0
 50
180.0
100
AcDbRotatedDimension
1001
ACAD
1000
DSTYLE
1002
{
1070
   179
1070
     8
1070
   271
1070
     8
1002
}
  0
DIMENSION
  5
475E
330
1A
100
AcDbEntity
  8
BALN
 62
     4
100
AcDbDimension
  2
*D7
 10
380.0000000000001
 20
420.0000000000017
 30
0.0
 11
380.0
 21
370.0000000000016
 31
0.0
 70
   160
  1
（%%c<>）
 71
     5
 42
100.0000000000002
  3
ITM
100
AcDbAlignedDimension
 13
300.0
 23
320.0000000000015
 33
0.0
 14
300.0
 24
420.0000000000017
 34
0.0
 50
90.0
100
AcDbRotatedDimension
1001
ACAD
1000
DSTYLE
1002
{
1070
   179
1070
     8
1070
   271
1070
     8
1002
}
  0
LINE
  5
48C9
330
1A
100
AcDbEntity
  8
BALN
 62
     3
100
AcDbLine
 10
-147.5309751340678
 20
-29.99999999999904
 30
0.0
 11
147.5309751340677
 21
-29.99999999999904
 31
0.0
  0
LINE
  5
48CA
330
1A
100
AcDbEntity
  8
BALN
 62
     3
100
AcDbLine
 10
-147.5309751340677
 20
0.0000000000009734
 30
0.0
 11
147.5309751340677
 21
0.0000000000009663
 31
0.0
  0
LINE
  5
48CB
330
1A
100
AcDbEntity
  8
BALN
 62
     3
100
AcDbLine
 10
-147.5309751340677
 20
30.00000000000097
 30
0.0
 11
147.5309751340677
 21
30.00000000000097
 31
0.0
  0
LINE
  5
48CC
330
1A
100
AcDbEntity
  8
BALN
 62
     3
100
AcDbLine
 10
-147.5309751340677
 20
60.00000000000096
 30
0.0
 11
147.5309751340677
 21
60.00000000000094
 31
0.0
  0
LINE
  5
48CD
330
1A
100
AcDbEntity
  8
BALN
 62
     3
100
AcDbLine
 10
-147.5309751340677
 20
-29.99999999999898
 30
0.0
 11
-147.5309751340677
 21
-119.9999999999989
 31
0.0
  0
LINE
  5
48CE
330
1A
100
AcDbEntity
  8
BALN
 62
     3
100
AcDbLine
 10
-147.5309751340677
 20
25.18930567040985
 30
0.0
 11
-147.5309751340677
 21
-124.8106943295901
 31
0.0
  0
TEXT
  5
48CF
330
1A
100
AcDbEntity
  8
BALN
 62
     7
100
AcDbText
 10
-52.06753143433104
 20
37.50000000000091
 30
0.0
 40
15.0
  1
     意匠
 41
0.8299999999999998
  7
BIGFONT
100
AcDbText
  0
TEXT
  5
48D0
330
1A
100
AcDbEntity
  8
BALN
 62
     7
100
AcDbText
 10
-140.0309751340677
 20
7.500000000001023
 30
0.0
 40
15.0
  1
ＫＶ０１Ａ
 41
0.833
  7
BIGFONT
100
AcDbText
  0
LINE
  5
48D1
330
1A
100
AcDbEntity
  8
BALN
 62
     3
100
AcDbLine
 10
-147.5309751340677
 20
-29.99999999999898
 30
0.0
 11
-147.5309751340677
 21
-119.9999999999989
 31
0.0
  0
LINE
  5
48D3
330
1A
100
AcDbEntity
  8
BALN
 62
     3
100
AcDbLine
 10
-59.56753143433104
 20
-29.99999999999904
 30
0.0
 11
-59.56753143433104
 21
-119.999999999999
 31
0.0
  0
LINE
  5
48D4
330
1A
100
AcDbEntity
  8
BALN
 62
     3
100
AcDbLine
 10
-59.56753143433104
 20
60.00000000000096
 30
0.0
 11
-59.56753143433104
 21
-449.9999999999999
 31
0.0
  0
LINE
  5
48DE
330
1A
100
AcDbEntity
  8
BALN
 62
     3
100
AcDbLine
 10
-147.5309751340677
 20
-29.99999999999898
 30
0.0
 11
-147.5309751340677
 21
-119.9999999999989
 31
0.0
  0
LINE
  5
48DF
330
1A
100
AcDbEntity
  8
BALN
 62
     3
100
AcDbLine
 10
-147.5309751340677
 20
30.00000000000103
 30
0.0
 11
-147.5309751340677
 21
-119.9999999999989
 31
0.0
  0
LINE
  5
48E0
330
1A
100
AcDbEntity
  8
BALN
 62
     3
100
AcDbLine
 10
-147.5309751340677
 20
-29.99999999999898
 30
0.0
 11
-147.5309751340677
 21
-119.9999999999989
 31
0.0
  0
TEXT
  5
48E2
330
1A
100
AcDbEntity
  8
BALN
 62
     7
100
AcDbText
 10
-140.0309751340677
 20
37.50000000000097
 30
0.0
 40
15.0
  1
ＫＶＫ品番
 41
0.8299999999999998
  7
BIGFONT
100
AcDbText
  0
TEXT
  5
48E3
330
1A
100
AcDbEntity
  8
BALN
 62
     7
100
AcDbText
 10
-52.06753143433104
 20
7.42641728131781
 30
0.0
 40
15.0
  1
小川
 41
0.8299999999999998
  7
BIGFONT
100
AcDbText
  0
TEXT
  5
48E4
330
1A
100
AcDbEntity
  8
BALN
 62
     7
100
AcDbText
 10
-52.06753143433104
 20
-22.57358271868225
 30
0.0
 40
15.0
  1
せせらぎ
 41
0.8299999999999998
  7
BIGFONT
100
AcDbText
  0
LINE
  5
48EC
330
1A
100
AcDbEntity
  8
BALN
 62
     3
100
AcDbLine
 10
-147.5309751340677
 20
-119.999999999999
 30
0.0
 11
147.5309751340677
 21
-119.999999999999
 31
0.0
  0
LINE
  5
48ED
330
1A
100
AcDbEntity
  8
BALN
 62
     3
100
AcDbLine
 10
-147.5309751340678
 20
-89.99999999999904
 30
0.0
 11
147.5309751340677
 21
-89.99999999999904
 31
0.0
  0
LINE
  5
48EE
330
1A
100
AcDbEntity
  8
BALN
 62
     3
100
AcDbLine
 10
-147.5309751340678
 20
-59.99999999999904
 30
0.0
 11
147.5309751340677
 21
-59.99999999999904
 31
0.0
  0
LINE
  5
48EF
330
1A
100
AcDbEntity
  8
BALN
 62
     3
100
AcDbLine
 10
-147.5309751340677
 20
-209.999999999999
 30
0.0
 11
147.5309751340677
 21
-209.999999999999
 31
0.0
  0
LINE
  5
48F0
330
1A
100
AcDbEntity
  8
BALN
 62
     3
100
AcDbLine
 10
-147.5309751340677
 20
-179.999999999999
 30
0.0
 11
147.5309751340677
 21
-179.999999999999
 31
0.0
  0
LINE
  5
48F1
330
1A
100
AcDbEntity
  8
BALN
 62
     3
100
AcDbLine
 10
-147.5309751340677
 20
-149.999999999999
 30
0.0
 11
147.5309751340677
 21
-149.999999999999
 31
0.0
  0
LINE
  5
48F2
330
1A
100
AcDbEntity
  8
BALN
 62
     3
100
AcDbLine
 10
-147.5309751340677
 20
-299.9999999999996
 30
0.0
 11
147.5309751340677
 21
-299.9999999999996
 31
0.0
  0
LINE
  5
48F3
330
1A
100
AcDbEntity
  8
BALN
 62
     3
100
AcDbLine
 10
-147.5309751340677
 20
-269.9999999999995
 30
0.0
 11
147.5309751340677
 21
-269.9999999999995
 31
0.0
  0
LINE
  5
48F4
330
1A
100
AcDbEntity
  8
BALN
 62
     3
100
AcDbLine
 10
-147.5309751340677
 20
-239.9999999999995
 30
0.0
 11
147.5309751340677
 21
-239.9999999999995
 31
0.0
  0
LINE
  5
48F5
330
1A
100
AcDbEntity
  8
BALN
 62
     3
100
AcDbLine
 10
-147.5309751340677
 20
-419.9999999999998
 30
0.0
 11
147.5309751340677
 21
-419.9999999999997
 31
0.0
  0
LINE
  5
48F6
330
1A
100
AcDbEntity
  8
BALN
 62
     3
100
AcDbLine
 10
-147.5309751340677
 20
-389.9999999999998
 30
0.0
 11
147.5309751340677
 21
-389.9999999999998
 31
0.0
  0
LINE
  5
48F7
330
1A
100
AcDbEntity
  8
BALN
 62
     3
100
AcDbLine
 10
-147.5309751340677
 20
-359.9999999999998
 30
0.0
 11
147.5309751340677
 21
-359.9999999999998
 31
0.0
  0
LINE
  5
48F8
330
1A
100
AcDbEntity
  8
BALN
 62
     3
100
AcDbLine
 10
-147.5309751340677
 20
-450.0
 30
0.0
 11
147.5309751340677
 21
-450.0
 31
0.0
  0
LINE
  5
48F9
330
1A
100
AcDbEntity
  8
BALN
 62
     3
100
AcDbLine
 10
-147.5309751340677
 20
-329.9999999999995
 30
0.0
 11
147.5309751340677
 21
-329.9999999999995
 31
0.0
  0
TEXT
  5
490E
330
1A
100
AcDbEntity
  8
BALN
 62
     7
100
AcDbText
 10
-140.0309751340677
 20
-22.49999999999898
 30
0.0
 40
15.0
  1
ＫＶ０２Ａ
 41
0.833
  7
BIGFONT
100
AcDbText
  0
TEXT
  5
490F
330
1A
100
AcDbEntity
  8
BALN
 62
     7
100
AcDbText
 10
-140.0309751340677
 20
-52.49999999999897
 30
0.0
 40
15.0
  1
ＫＶ０３Ａ
 41
0.833
  7
BIGFONT
100
AcDbText
  0
TEXT
  5
4910
330
1A
100
AcDbEntity
  8
BALN
 62
     7
100
AcDbText
 10
-140.0309751340677
 20
-82.49999999999898
 30
0.0
 40
15.0
  1
ＫＶ０７Ａ
 41
0.833
  7
BIGFONT
100
AcDbText
  0
TEXT
  5
4911
330
1A
100
AcDbEntity
  8
BALN
 62
     7
100
AcDbText
 10
-140.0309751340677
 20
-112.499999999999
 30
0.0
 40
15.0
  1
ＫＶ８８Ａ
 41
0.833
  7
BIGFONT
100
AcDbText
  0
TEXT
  5
4912
330
1A
100
AcDbEntity
  8
BALN
 62
     7
100
AcDbText
 10
-140.0309751340677
 20
-142.499999999999
 30
0.0
 40
15.0
  1
ＫＶ８９Ａ
 41
0.833
  7
BIGFONT
100
AcDbText
  0
TEXT
  5
4913
330
1A
100
AcDbEntity
  8
BALN
 62
     7
100
AcDbText
 10
-140.0309751340677
 20
-172.499999999999
 30
0.0
 40
15.0
  1
ＫＶ９２Ａ
 41
0.833
  7
BIGFONT
100
AcDbText
  0
TEXT
  5
4914
330
1A
100
AcDbEntity
  8
BALN
 62
     7
100
AcDbText
 10
-140.0309751340677
 20
-202.499999999999
 30
0.0
 40
15.0
  1
ＫＶ３７Ａ
 41
0.833
  7
BIGFONT
100
AcDbText
  0
TEXT
  5
4915
330
1A
100
AcDbEntity
  8
BALN
 62
     7
100
AcDbText
 10
-140.0309751340677
 20
-232.4999999999995
 30
0.0
 40
15.0
  1
ＫＶ３８Ａ
 41
0.833
  7
BIGFONT
100
AcDbText
  0
TEXT
  5
4916
330
1A
100
AcDbEntity
  8
BALN
 62
     7
100
AcDbText
 10
-140.0309751340677
 20
-262.4999999999995
 30
0.0
 40
15.0
  1
ＫＶ４７Ａ
 41
0.833
  7
BIGFONT
100
AcDbText
  0
TEXT
  5
4917
330
1A
100
AcDbEntity
  8
BALN
 62
     7
100
AcDbText
 10
-140.0309751340677
 20
-292.4999999999995
 30
0.0
 40
15.0
  1
ＫＶ４８Ａ
 41
0.833
  7
BIGFONT
100
AcDbText
  0
TEXT
  5
4918
330
1A
100
AcDbEntity
  8
BALN
 62
     7
100
AcDbText
 10
-140.0309751340677
 20
-322.4999999999995
 30
0.0
 40
15.0
  1
ＫＶ４９Ａ
 41
0.833
  7
BIGFONT
100
AcDbText
  0
TEXT
  5
4919
330
1A
100
AcDbEntity
  8
BALN
 62
     7
100
AcDbText
 10
-140.0309751340677
 20
-352.4999999999997
 30
0.0
 40
15.0
  1
ＫＶ５０Ａ
 41
0.833
  7
BIGFONT
100
AcDbText
  0
TEXT
  5
491A
330
1A
100
AcDbEntity
  8
BALN
 62
     7
100
AcDbText
 10
-140.0309751340677
 20
-382.4999999999997
 30
0.0
 40
15.0
  1
ＫＶ５１Ａ
 41
0.833
  7
BIGFONT
100
AcDbText
  0
TEXT
  5
491B
330
1A
100
AcDbEntity
  8
BALN
 62
     7
100
AcDbText
 10
-140.0309751340677
 20
-412.4999999999997
 30
0.0
 40
15.0
  1
ＫＶ５４Ａ
 41
0.833
  7
BIGFONT
100
AcDbText
  0
TEXT
  5
491C
330
1A
100
AcDbEntity
  8
BALN
 62
     7
100
AcDbText
 10
-140.0309751340677
 20
-442.4999999999998
 30
0.0
 40
15.0
  1
ＫＶ６１Ａ
 41
0.833
  7
BIGFONT
100
AcDbText
  0
TEXT
  5
491D
330
1A
100
AcDbEntity
  8
BALN
 62
     7
100
AcDbText
 10
-52.06753143433104
 20
-52.57358271868219
 30
0.0
 40
15.0
  1
ホタル
 41
0.8299999999999998
  7
BIGFONT
100
AcDbText
  0
TEXT
  5
491E
330
1A
100
AcDbEntity
  8
BALN
 62
     7
100
AcDbText
 10
-52.06753143433104
 20
-82.57358271868225
 30
0.0
 40
15.0
  1
花友禅
 41
0.8299999999999998
  7
BIGFONT
100
AcDbText
  0
TEXT
  5
491F
330
1A
100
AcDbEntity
  8
BALN
 62
     7
100
AcDbText
 10
-52.06753143433104
 20
-142.5735827186822
 30
0.0
 40
15.0
  1
ピンクラスター
 41
0.8299999999999998
  7
BIGFONT
100
AcDbText
  0
TEXT
  5
4920
330
1A
100
AcDbEntity
  8
BALN
 62
     7
100
AcDbText
 10
-52.06753143433104
 20
-172.5735827186822
 30
0.0
 40
15.0
  1
黒グロス
 41
0.8299999999999998
  7
BIGFONT
100
AcDbText
  0
TEXT
  5
4921
330
1A
100
AcDbEntity
  8
BALN
 62
     7
100
AcDbText
 10
-52.06753143433104
 20
-202.5735827186823
 30
0.0
 40
15.0
  1
黒泥
 41
0.8299999999999998
  7
BIGFONT
100
AcDbText
  0
TEXT
  5
4922
330
1A
100
AcDbEntity
  8
BALN
 62
     7
100
AcDbText
 10
-52.06753143433104
 20
-262.5735827186828
 30
0.0
 40
15.0
  1
青磁
 41
0.8299999999999998
  7
BIGFONT
100
AcDbText
  0
TEXT
  5
4923
330
1A
100
AcDbEntity
  8
BALN
 62
     7
100
AcDbText
 10
-52.06753143433104
 20
-292.5735827186827
 30
0.0
 40
15.0
  1
白磁
 41
0.8299999999999998
  7
BIGFONT
100
AcDbText
  0
TEXT
  5
4924
330
1A
100
AcDbEntity
  8
BALN
 62
     7
100
AcDbText
 10
-52.06753143433104
 20
-322.5735827186828
 30
0.0
 40
15.0
  1
白磁
 41
0.8299999999999998
  7
BIGFONT
100
AcDbText
  0
TEXT
  5
4925
330
1A
100
AcDbEntity
  8
BALN
 62
     7
100
AcDbText
 10
-52.06753143433104
 20
-352.5735827186829
 30
0.0
 40
15.0
  1
〆焼
 41
0.8299999999999998
  7
BIGFONT
100
AcDbText
  0
TEXT
  5
4926
330
1A
100
AcDbEntity
  8
BALN
 62
     7
100
AcDbText
 10
-52.06753143433104
 20
-382.573582718683
 30
0.0
 40
15.0
  1
〆焼
 41
0.8299999999999998
  7
BIGFONT
100
AcDbText
  0
TEXT
  5
4927
330
1A
100
AcDbEntity
  8
BALN
 62
     7
100
AcDbText
 10
-52.06753143433104
 20
-412.5735827186828
 30
0.0
 40
15.0
  1
すすき
 41
0.8299999999999998
  7
BIGFONT
100
AcDbText
  0
TEXT
  5
4928
330
1A
100
AcDbEntity
  8
BALN
 62
     7
100
AcDbText
 10
-52.06753143433104
 20
-442.5735827186829
 30
0.0
 40
15.0
  1
友禅
 41
0.8299999999999998
  7
BIGFONT
100
AcDbText
  0
TEXT
  5
4929
330
1A
100
AcDbEntity
  8
BALN
 62
     7
100
AcDbText
 10
-52.06753143433104
 20
-112.5735827186822
 30
0.0
 40
15.0
  1
パールラスター
 41
0.8299999999999998
  7
BIGFONT
100
AcDbText
  0
TEXT
  5
492A
330
1A
100
AcDbEntity
  8
BALN
 62
     7
100
AcDbText
 10
-52.06753143433104
 20
-232.5735827186828
 30
0.0
 40
15.0
  1
黒泥
 41
0.8299999999999998
  7
BIGFONT
100
AcDbText
  0
LINE
  5
492B
330
1A
100
AcDbEntity
  8
BALN
 62
     3
100
AcDbLine
 10
59.40409002905346
 20
60.00000000000091
 30
0.0
 11
59.40409002905346
 21
-449.9999999999999
 31
0.0
  0
LINE
  5
492C
330
1A
100
AcDbEntity
  8
BALN
 62
     3
100
AcDbLine
 10
59.40409002905346
 20
-29.99999999999904
 30
0.0
 11
59.40409002905346
 21
-119.9999999999991
 31
0.0
  0
LINE
  5
4933
330
1A
100
AcDbEntity
  8
BALN
 62
     3
100
AcDbLine
 10
59.40409002905346
 20
60.00000000000091
 30
0.0
 11
59.40409002905346
 21
-450.0
 31
0.0
  0
LINE
  5
4947
330
1A
100
AcDbEntity
  8
BALN
 62
     3
100
AcDbLine
 10
-147.5309751340677
 20
60.00000000000096
 30
0.0
 11
-147.5309751340677
 21
-449.9999999999999
 31
0.0
  0
LINE
  5
494A
330
1A
100
AcDbEntity
  8
BALN
 62
     3
100
AcDbLine
 10
-147.5309751340677
 20
-25.18930567040786
 30
0.0
 11
-147.5309751340677
 21
-115.1893056704078
 31
0.0
  0
LINE
  5
4969
330
1A
100
AcDbEntity
  8
BALN
 62
     3
100
AcDbLine
 10
147.5309751340679
 20
60.00000000000103
 30
0.0
 11
147.5309751340679
 21
-449.9999999999999
 31
0.0
  0
TEXT
  5
496A
330
1A
100
AcDbEntity
  8
BALN
  6
Continuous
 62
     7
100
AcDbText
 10
73.8780654111439
 20
7.500000000001023
 30
0.0
 40
15.0
  1
プレーン
 41
0.833
  7
BIGFONT
100
AcDbText
  0
TEXT
  5
496B
330
1A
100
AcDbEntity
  8
BALN
  6
Continuous
 62
     7
100
AcDbText
 10
66.90409002905346
 20
37.50000000000103
 30
0.0
 40
15.0
  1
 　模様
 41
0.833
  7
BIGFONT
100
AcDbText
  0
TEXT
  5
496C
330
1A
100
AcDbEntity
  8
BALN
  6
Continuous
 62
     7
100
AcDbText
 10
73.8780654111439
 20
-22.4999999999992
 30
0.0
 40
15.0
  1
プレーン
 41
0.833
  7
BIGFONT
100
AcDbText
  0
TEXT
  5
496D
330
1A
100
AcDbEntity
  8
BALN
  6
Continuous
 62
     7
100
AcDbText
 10
73.8780654111439
 20
-82.49999999999927
 30
0.0
 40
15.0
  1
プレーン
 41
0.833
  7
BIGFONT
100
AcDbText
  0
TEXT
  5
496E
330
1A
100
AcDbEntity
  8
BALN
  6
Continuous
 62
     7
100
AcDbText
 10
73.8780654111439
 20
-172.4999999999994
 30
0.0
 40
15.0
  1
プレーン
 41
0.833
  7
BIGFONT
100
AcDbText
  0
TEXT
  5
496F
330
1A
100
AcDbEntity
  8
BALN
  6
Continuous
 62
     7
100
AcDbText
 10
73.8780654111439
 20
-202.4999999999995
 30
0.0
 40
15.0
  1
プレーン
 41
0.833
  7
BIGFONT
100
AcDbText
  0
TEXT
  5
4970
330
1A
100
AcDbEntity
  8
BALN
  6
Continuous
 62
     7
100
AcDbText
 10
81.3780654111439
 20
-292.4999999999997
 30
0.0
 40
15.0
  1
プレーン
 41
0.833
  7
BIGFONT
100
AcDbText
  0
TEXT
  5
4971
330
1A
100
AcDbEntity
  8
BALN
  6
Continuous
 62
     7
100
AcDbText
 10
73.8780654111439
 20
-352.4999999999998
 30
0.0
 40
15.0
  1
プレーン
 41
0.833
  7
BIGFONT
100
AcDbText
  0
TEXT
  5
4972
330
1A
100
AcDbEntity
  8
BALN
  6
Continuous
 62
     7
100
AcDbText
 10
73.8780654111439
 20
-442.4999999999998
 30
0.0
 40
15.0
  1
プレーン
 41
0.833
  7
BIGFONT
100
AcDbText
  0
TEXT
  5
4973
330
1A
100
AcDbEntity
  8
BALN
  6
Continuous
 62
     7
100
AcDbText
 10
73.8780654111439
 20
-52.4999999999992
 30
0.0
 40
15.0
  1
　六兵
 41
0.833
  7
BIGFONT
100
AcDbText
  0
TEXT
  5
4974
330
1A
100
AcDbEntity
  8
BALN
  6
Continuous
 62
     7
100
AcDbText
 10
73.8780654111439
 20
-112.4999999999992
 30
0.0
 40
15.0
  1
　六兵
 41
0.833
  7
BIGFONT
100
AcDbText
  0
TEXT
  5
4975
330
1A
100
AcDbEntity
  8
BALN
  6
Continuous
 62
     7
100
AcDbText
 10
73.8780654111439
 20
-142.4999999999992
 30
0.0
 40
15.0
  1
　六兵
 41
0.833
  7
BIGFONT
100
AcDbText
  0
TEXT
  5
4976
330
1A
100
AcDbEntity
  8
BALN
  6
Continuous
 62
     7
100
AcDbText
 10
73.8780654111439
 20
-232.4999999999997
 30
0.0
 40
15.0
  1
　六兵
 41
0.833
  7
BIGFONT
100
AcDbText
  0
TEXT
  5
4977
330
1A
100
AcDbEntity
  8
BALN
  6
Continuous
 62
     7
100
AcDbText
 10
73.8780654111439
 20
-262.4999999999997
 30
0.0
 40
15.0
  1
　六兵
 41
0.833
  7
BIGFONT
100
AcDbText
  0
TEXT
  5
4978
330
1A
100
AcDbEntity
  8
BALN
  6
Continuous
 62
     7
100
AcDbText
 10
73.8780654111439
 20
-322.4999999999997
 30
0.0
 40
15.0
  1
　六兵
 41
0.833
  7
BIGFONT
100
AcDbText
  0
TEXT
  5
4979
330
1A
100
AcDbEntity
  8
BALN
  6
Continuous
 62
     7
100
AcDbText
 10
73.8780654111439
 20
-382.4999999999999
 30
0.0
 40
15.0
  1
　六兵
 41
0.833
  7
BIGFONT
100
AcDbText
  0
TEXT
  5
497A
330
1A
100
AcDbEntity
  8
BALN
  6
Continuous
 62
     7
100
AcDbText
 10
73.8780654111439
 20
-412.4999999999999
 30
0.0
 40
15.0
  1
　六兵
 41
0.833
  7
BIGFONT
100
AcDbText
  0
TEXT
  5
497B
330
1A
100
AcDbEntity
  8
BALN
 62
     7
100
AcDbText
 10
-140.0
 20
70.0
 30
0.0
 40
15.0
  1
＊Ａ
 41
0.833
  7
BIGFONT
100
AcDbText
  0
VIEWPORT
  5
22
102
{ACAD_XDICTIONARY
360
4BD5
102
}
330
17
100
AcDbEntity
 67
     1
  8
0
100
AcDbViewport
 10
261.5176990000001
 20
148.5
 30
0.0
 40
523.0353980000001
 41
297.0
 68
     1
 69
     1
 12
261.5176990000001
 22
148.5
 13
0.0
 23
0.0
 14
1.0
 24
1.0
 15
10.0
 25
10.0
 16
0.0
 26
0.0
 36
1.0
 17
0.0
 27
0.0
 37
0.0
 42
50.0
 43
0.0
 44
0.0
 45
297.0
 50
0.0
 51
0.0
 72
   100
 90
    32800
  1

281
     0
 71
     1
 74
     0
110
0.0
120
0.0
130
0.0
111
1.0
121
0.0
131
0.0
112
0.0
122
1.0
132
0.0
 79
     0
146
0.0
  0
ENDSEC
  0
SECTION
  2
OBJECTS
  0
DICTIONARY
  5
C
330
0
100
AcDbDictionary
281
     1
  3
ACAD_CIP_PREVIOUS_PRODUCT_INFO
350
602
  3
ACAD_COLOR
350
4F4
  3
ACAD_DETAILVIEWSTYLE
350
5F8
  3
ACAD_GROUP
350
D
  3
ACAD_LAYOUT
350
4BC
  3
ACAD_MATERIAL
350
4F3
  3
ACAD_MLEADERSTYLE
350
5A8
  3
ACAD_MLINESTYLE
350
E
  3
ACAD_PLOTSETTINGS
350
4BD
  3
ACAD_PLOTSTYLENAME
350
4BA
  3
ACAD_SCALELIST
350
586
  3
ACAD_SECTIONVIEWSTYLE
350
5F6
  3
ACAD_TABLESTYLE
350
4F5
  3
ACAD_VISUALSTYLE
350
575
  3
ACDB_RECOMPOSE_DATA
350
4BD3
  3
AcDbVariableDictionary
350
4FD
  3
ASE_INDEX_DICTIONARY
350
972
  3
DWGPROPS
350
4BD4
  0
DICTIONARY
  5
60C
330
2
100
AcDbDictionary
280
     1
281
     1
  3
ACAD_LAYERSTATES
360
60D
  0
DICTIONARY
  5
5D5
330
F
100
AcDbDictionary
280
     1
281
     1
  3
ADSK_XREC_LAYER_RECONCILED
360
98B
  0
DICTIONARY
  5
5D7
330
44C
100
AcDbDictionary
280
     1
281
     1
  3
ADSK_XREC_LAYER_RECONCILED
360
98C
  0
DICTIONARY
  5
4732
330
4731
100
AcDbDictionary
280
     1
281
     1
  0
DICTIONARY
  5
768
330
1A
100
AcDbDictionary
280
     1
281
     1
  3
ACAD_SORTENTS
360
769
  0
DICTIONARY
  5
4C1C
330
497E
100
AcDbDictionary
280
     1
281
     1
  3
ACAD_MTEXT_RT
360
4C1D
  0
DICTIONARY
  5
4BD5
330
22
100
AcDbDictionary
280
     1
281
     1
  3
ACAD_XREC_ROUNDTRIP
360
4BD6
  0
XRECORD
  5
602
102
{ACAD_REACTORS
330
C
102
}
330
C
100
AcDbXrecord
280
     1
300
ACD
300
2014
300
86063ACD_2014_0F
  0
DICTIONARY
  5
4F4
102
{ACAD_REACTORS
330
C
102
}
330
C
100
AcDbDictionary
281
     1
  0
DICTIONARY
  5
5F8
102
{ACAD_REACTORS
330
C
102
}
330
C
100
AcDbDictionary
281
     1
  3
Imperial24
350
968
  3
Metric50
350
5F9
  0
DICTIONARY
  5
D
102
{ACAD_REACTORS
330
C
102
}
330
C
100
AcDbDictionary
281
     1
  0
DICTIONARY
  5
4BC
102
{ACAD_REACTORS
330
C
102
}
330
C
100
AcDbDictionary
281
     1
  3
Model
350
4BE
  3
ﾚｲｱｳﾄ1
350
4BF
  0
DICTIONARY
  5
4F3
102
{ACAD_REACTORS
330
C
102
}
330
C
100
AcDbDictionary
281
     1
  3
ByBlock
350
565
  3
ByLayer
350
55D
  3
Global
350
56D
  0
DICTIONARY
  5
5A8
102
{ACAD_REACTORS
330
C
102
}
330
C
100
AcDbDictionary
281
     1
  3
KVKMLEADER
350
4170
  3
Standard
350
5A9
  0
DICTIONARY
  5
E
102
{ACAD_REACTORS
330
C
102
}
330
C
100
AcDbDictionary
281
     1
  3
STANDARD
350
13
  0
DICTIONARY
  5
4BD
102
{ACAD_REACTORS
330
C
102
}
330
C
100
AcDbDictionary
281
     1
  0
ACDBDICTIONARYWDFLT
  5
4BA
102
{ACAD_REACTORS
330
C
102
}
330
C
100
AcDbDictionary
281
     1
  3
Normal
350
4BB
100
AcDbDictionaryWithDefault
340
4BB
  0
DICTIONARY
  5
586
102
{ACAD_REACTORS
330
C
102
}
330
C
100
AcDbDictionary
281
     1
  3
A0
350
587
  3
A1
350
588
  3
A2
350
589
  3
A3
350
58A
  3
A4
350
58B
  3
A5
350
58C
  3
A6
350
58D
  3
A7
350
58E
  3
A8
350
58F
  3
A9
350
590
  3
B0
350
591
  3
B1
350
592
  3
B2
350
593
  3
B3
350
594
  3
B4
350
595
  3
B5
350
596
  3
B6
350
597
  3
B7
350
598
  3
B8
350
599
  3
B9
350
59A
  3
C0
350
59B
  3
C1
350
59C
  3
C2
350
59D
  3
C3
350
59E
  3
C4
350
59F
  3
C5
350
5A0
  3
C6
350
5A1
  3
C7
350
5A2
  3
C8
350
5A3
  3
C9
350
5A4
  3
D0
350
5A5
  3
D1
350
5A6
  3
D2
350
5A7
  0
DICTIONARY
  5
5F6
102
{ACAD_REACTORS
330
C
102
}
330
C
100
AcDbDictionary
281
     1
  3
Imperial24
350
967
  3
Metric50
350
5F7
  0
DICTIONARY
  5
4F5
102
{ACAD_REACTORS
330
C
102
}
330
C
100
AcDbDictionary
281
     1
  3
Standard
350
4F6
  0
DICTIONARY
  5
575
102
{ACAD_REACTORS
330
C
102
}
330
C
100
AcDbDictionary
281
     1
  3
2dWireframe
350
57B
  3
3D Hidden
350
57D
  3
3dWireframe
350
57C
  3
Basic
350
57A
  3
Brighten
350
581
  3
ColorChange
350
585
  3
Conceptual
350
57E
  3
Dim
350
580
  3
EdgeColorOff
350
5F5
  3
Facepattern
350
584
  3
Flat
350
576
  3
FlatWithEdges
350
577
  3
Gouraud
350
578
  3
GouraudWithEdges
350
579
  3
Hidden
350
5ED
  3
JitterOff
350
5F3
  3
Linepattern
350
583
  3
OverhangOff
350
5F4
  3
Realistic
350
57F
  3
Shaded
350
5F2
  3
Shaded with edges
350
5F1
  3
Shades of Gray
350
5EE
  3
Sketchy
350
5EF
  3
Thicken
350
582
  3
Wireframe
350
5EC
  3
X-Ray
350
5F0
  0
XRECORD
  5
4BD3
102
{ACAD_REACTORS
330
C
102
}
330
C
100
AcDbXrecord
280
     1
 90
        1
330
4F6
  0
DICTIONARY
  5
4FD
102
{ACAD_REACTORS
330
C
102
}
330
C
100
AcDbDictionary
281
     1
  3
CANNOSCALE
350
5CA
  3
CMLEADERSTYLE
350
5C8
  3
CTABLESTYLE
350
4FE
  3
CVIEWDETAILSTYLE
350
618
  3
CVIEWSECTIONSTYLE
350
619
  3
DIMASSOC
350
4B84
  3
INDEXCTL
350
4B82
  3
LAYEREVAL
350
61A
  3
LAYERNOTIFY
350
61B
  3
LIGHTINGUNITS
350
5CB
  3
MSLTSCALE
350
5C9
  3
SOLIDHIST
350
4B85
  3
SORTENTS
350
4B81
  3
XCLIPFRAME
350
4B83
  0
DICTIONARY
  5
972
102
{ACAD_REACTORS
330
C
102
}
330
C
100
AcDbDictionary
281
     1
  3
ASEBlockHierarchyIndexRecord
350
973
1001
DCO15
1040
1844747841.292
  0
XRECORD
  5
4BD4
102
{ACAD_REACTORS
330
C
102
}
330
C
100
AcDbXrecord
280
     1
  1
DWGPROPS COOKIE
  2

  3

  4

  6

  7

  8
K1994003
  9

300
=
301
=
302
=
303
=
304
=
305
=
306
=
307
=
308
=
309
=
 40
0.6432809837962963
 41
2457175.427189722
 42
2458212.721033298
  1

 90
        0
  0
DICTIONARY
  5
60D
102
{ACAD_REACTORS
330
60C
102
}
330
60C
100
AcDbDictionary
281
     1
  0
XRECORD
  5
98B
102
{ACAD_REACTORS
330
5D5
102
}
330
5D5
100
AcDbXrecord
280
     1
290
     1
  0
XRECORD
  5
98C
102
{ACAD_REACTORS
330
5D7
102
}
330
5D7
100
AcDbXrecord
280
     1
290
     1
  0
SORTENTSTABLE
  5
769
102
{ACAD_REACTORS
330
768
102
}
330
768
100
AcDbSortentsTable
330
1A
331
474C
  5
474D
331
4754
  5
4755
331
4752
  5
4753
331
4750
  5
4751
331
475D
  5
475E
331
475B
  5
475C
331
4759
  5
475A
331
970
  5
970
331
472
  5
754
331
474F
  5
4750
331
850
  5
850
331
4757
  5
4758
331
470
  5
752
331
474D
  5
474E
331
84E
  5
84E
331
4755
  5
4756
331
474B
  5
474B
331
4753
  5
4754
331
4751
  5
4752
331
475E
  5
4821
331
966
  5
966
331
475C
  5
475D
331
475A
  5
475B
331
853
  5
853
331
851
  5
851
331
4758
  5
4759
331
474E
  5
474F
331
4756
  5
4757
331
471
  5
753
331
84F
  5
84F
  0
XRECORD
  5
4C1D
102
{ACAD_REACTORS
330
4C1C
102
}
330
4C1C
100
AcDbXrecord
280
     1
 40
2357.0
  1
\U+220541
  0
XRECORD
  5
4BD6
102
{ACAD_REACTORS
330
4BD5
102
}
330
4BD5
100
AcDbXrecord
280
     1
102
SHADEPLOT
 70
     0
  0
ACDBDETAILVIEWSTYLE
  5
968
102
{ACAD_XDICTIONARY
360
4C18
102
}
102
{ACAD_REACTORS
330
5F8
102
}
330
5F8
100
AcDbModelDocViewStyle
 70
     0
  3
Imperial24
290
     0
100
AcDbDetailViewStyle
 70
     0
 71
     0
 90
        3
 71
     1
340
10
 40
0.24
340
0
 40
0.24
300

 40
0.36
280
     3
 71
     2
340
16
 90
       25
 71
     3
340
10
 40
0.24
 90
        1
 40
0.75
 90
        1
300
%<\AcVar ViewType \f "%tc1">% %<\AcVar ViewDetailId>%\PSCALE %<\AcVar ViewScale \f "%sn">%
 71
     4
340
16
 90
       25
340
16
 90
       25
280
     0
  0
ACDBDETAILVIEWSTYLE
  5
5F9
102
{ACAD_XDICTIONARY
360
4C14
102
}
102
{ACAD_REACTORS
330
5F8
102
}
330
5F8
100
AcDbModelDocViewStyle
 70
     0
  3
Metric50
290
     0
100
AcDbDetailViewStyle
 70
     0
 71
     0
 90
        3
 71
     1
340
10
 40
5.0
340
0
 40
5.0
300

 40
0.0
280
     1
 71
     2
340
16
 90
       25
 71
     3
340
10
 40
5.0
 90
        0
 40
15.0
 90
        1
300
%<\AcVar ViewDetailId>% (%<\AcVar ViewScale \f "%sn">%)
 71
     4
340
16
 90
       25
340
16
 90
       25
280
     0
  0
LAYOUT
  5
4BE
102
{ACAD_XDICTIONARY
360
997
102
}
102
{ACAD_REACTORS
330
4BC
102
}
330
4BC
100
AcDbPlotSettings
  1

  2
ApeosPort-V C4475 - 設計二課
  4
A4
  6

 40
4.900083065032958
 41
4.900054931640625
 42
4.90008544921875
 43
4.90008544921875
 44
210.0156707763672
 45
297.0106506347656
 46
-4.818861733483487
 47
-4.802503407268062
 48
0.0
 49
0.0
140
0.0
141
0.0
142
1.0
143
5.0
 70
 11940
 72
     1
 73
     0
 74
     1
  7
monochrome.ctb
 75
     0
147
0.2
148
562.0811913071029
149
742.0679237569165
100
AcDbLayout
  1
Model
 70
     1
 71
     0
 10
0.0
 20
0.0
 11
12.0
 21
9.0
 12
0.0
 22
0.0
 32
0.0
 14
0.0
 24
0.0
 34
0.0
 15
0.0
 25
0.0
 35
0.0
146
0.0
 13
0.0
 23
0.0
 33
0.0
 16
1.0
 26
0.0
 36
0.0
 17
0.0
 27
1.0
 37
0.0
 76
     0
330
1A
331
55B
1001
ACAD_PSEXT
1000
ApeosPort-V C4475 - 設計二課
1000
FX ApeosPort-V C4475
1000
10.70.61.110
1000

1070
     0
  0
LAYOUT
  5
4BF
102
{ACAD_XDICTIONARY
360
4BD8
102
}
102
{ACAD_REACTORS
330
4BC
102
}
330
4BC
100
AcDbPlotSettings
  1

  2
C:\PROGRAM FILES\AUTOCAD 2000I\plotters\DocuWide2050.pc3
  4

  6

 40
0.0
 41
0.0
 42
0.0
 43
0.0
 44
0.0
 45
0.0
 46
0.0
 47
0.0
 48
0.0
 49
0.0
140
0.0
141
0.0
142
1.0
143
1.0
 70
   688
 72
     0
 73
     0
 74
     5
  7
monochrome.ctb
 75
    16
147
1.0
148
0.0
149
0.0
100
AcDbLayout
  1
ﾚｲｱｳﾄ1
 70
     1
 71
     1
 10
0.0
 20
0.0
 11
420.0
 21
297.0
 12
0.0
 22
0.0
 32
0.0
 14
1.000000000000000E+20
 24
1.000000000000000E+20
 34
1.000000000000000E+20
 15
-1.000000000000000E+20
 25
-1.000000000000000E+20
 35
-1.000000000000000E+20
146
0.0
 13
0.0
 23
0.0
 33
0.0
 16
1.0
 26
0.0
 36
0.0
 17
0.0
 27
1.0
 37
0.0
 76
     0
330
17
331
22
  0
MATERIAL
  5
565
102
{ACAD_XDICTIONARY
360
566
102
}
102
{ACAD_REACTORS
330
4F3
102
}
330
4F3
100
AcDbMaterial
  1
ByBlock
 72
     0
 43
0.0208333333333333
 43
0.0
 43
0.0
 43
0.0
 43
0.0
 43
0.0208333333333333
 43
0.0
 43
0.0
 43
0.0
 43
0.0
 43
1.0
 43
0.0
 43
0.0
 43
0.0
 43
0.0
 43
1.0
 77
     0
 47
0.0208333333333333
 47
0.0
 47
0.0
 47
0.0
 47
0.0
 47
0.0208333333333333
 47
0.0
 47
0.0
 47
0.0
 47
0.0
 47
1.0
 47
0.0
 47
0.0
 47
0.0
 47
0.0
 47
1.0
171
     0
 49
0.0208333333333333
 49
0.0
 49
0.0
 49
0.0
 49
0.0
 49
0.0208333333333333
 49
0.0
 49
0.0
 49
0.0
 49
0.0
 49
1.0
 49
0.0
 49
0.0
 49
0.0
 49
0.0
 49
1.0
175
     0
142
0.0208333333333333
142
0.0
142
0.0
142
0.0
142
0.0
142
0.0208333333333333
142
0.0
142
0.0
142
0.0
142
0.0
142
1.0
142
0.0
142
0.0
142
0.0
142
0.0
142
1.0
179
     0
144
0.0208333333333333
144
0.0
144
0.0
144
0.0
144
0.0
144
0.0208333333333333
144
0.0
144
0.0
144
0.0
144
0.0
144
1.0
144
0.0
144
0.0
144
0.0
144
0.0
144
1.0
147
0.0208333333333333
147
0.0
147
0.0
147
0.0
147
0.0
147
0.0208333333333333
147
0.0
147
0.0
147
0.0
147
0.0
147
1.0
147
0.0
147
0.0
147
0.0
147
0.0
147
1.0
  0
MATERIAL
  5
55D
102
{ACAD_XDICTIONARY
360
55E
102
}
102
{ACAD_REACTORS
330
4F3
102
}
330
4F3
100
AcDbMaterial
  1
ByLayer
 72
     0
 43
0.0208333333333333
 43
0.0
 43
0.0
 43
0.0
 43
0.0
 43
0.0208333333333333
 43
0.0
 43
0.0
 43
0.0
 43
0.0
 43
1.0
 43
0.0
 43
0.0
 43
0.0
 43
0.0
 43
1.0
 77
     0
 47
0.0208333333333333
 47
0.0
 47
0.0
 47
0.0
 47
0.0
 47
0.0208333333333333
 47
0.0
 47
0.0
 47
0.0
 47
0.0
 47
1.0
 47
0.0
 47
0.0
 47
0.0
 47
0.0
 47
1.0
171
     0
 49
0.0208333333333333
 49
0.0
 49
0.0
 49
0.0
 49
0.0
 49
0.0208333333333333
 49
0.0
 49
0.0
 49
0.0
 49
0.0
 49
1.0
 49
0.0
 49
0.0
 49
0.0
 49
0.0
 49
1.0
175
     0
142
0.0208333333333333
142
0.0
142
0.0
142
0.0
142
0.0
142
0.0208333333333333
142
0.0
142
0.0
142
0.0
142
0.0
142
1.0
142
0.0
142
0.0
142
0.0
142
0.0
142
1.0
179
     0
144
0.0208333333333333
144
0.0
144
0.0
144
0.0
144
0.0
144
0.0208333333333333
144
0.0
144
0.0
144
0.0
144
0.0
144
1.0
144
0.0
144
0.0
144
0.0
144
0.0
144
1.0
147
0.0208333333333333
147
0.0
147
0.0
147
0.0
147
0.0
147
0.0208333333333333
147
0.0
147
0.0
147
0.0
147
0.0
147
1.0
147
0.0
147
0.0
147
0.0
147
0.0
147
1.0
  0
MATERIAL
  5
56D
102
{ACAD_XDICTIONARY
360
56E
102
}
102
{ACAD_REACTORS
330
4F3
102
}
330
4F3
100
AcDbMaterial
  1
Global
 72
     0
 43
0.0208333333333333
 43
0.0
 43
0.0
 43
0.0
 43
0.0
 43
0.0208333333333333
 43
0.0
 43
0.0
 43
0.0
 43
0.0
 43
1.0
 43
0.0
 43
0.0
 43
0.0
 43
0.0
 43
1.0
 77
     0
 47
0.0208333333333333
 47
0.0
 47
0.0
 47
0.0
 47
0.0
 47
0.0208333333333333
 47
0.0
 47
0.0
 47
0.0
 47
0.0
 47
1.0
 47
0.0
 47
0.0
 47
0.0
 47
0.0
 47
1.0
171
     0
 49
0.0208333333333333
 49
0.0
 49
0.0
 49
0.0
 49
0.0
 49
0.0208333333333333
 49
0.0
 49
0.0
 49
0.0
 49
0.0
 49
1.0
 49
0.0
 49
0.0
 49
0.0
 49
0.0
 49
1.0
175
     0
142
0.0208333333333333
142
0.0
142
0.0
142
0.0
142
0.0
142
0.0208333333333333
142
0.0
142
0.0
142
0.0
142
0.0
142
1.0
142
0.0
142
0.0
142
0.0
142
0.0
142
1.0
179
     0
144
0.0208333333333333
144
0.0
144
0.0
144
0.0
144
0.0
144
0.0208333333333333
144
0.0
144
0.0
144
0.0
144
0.0
144
1.0
144
0.0
144
0.0
144
0.0
144
0.0
144
1.0
147
0.0208333333333333
147
0.0
147
0.0
147
0.0
147
0.0
147
0.0208333333333333
147
0.0
147
0.0
147
0.0
147
0.0
147
1.0
147
0.0
147
0.0
147
0.0
147
0.0
147
1.0
  0
MLEADERSTYLE
  5
4170
102
{ACAD_XDICTIONARY
360
4C1A
102
}
102
{ACAD_REACTORS
330
5A8
102
}
330
5A8
100
AcDbMLeaderStyle
170
     2
171
     1
172
     0
 90
        2
 40
0.0
 41
0.0
173
     1
 91
-1073741824
 92
       -2
290
     1
 42
0.4
291
     1
 43
2.0
  3

341
4A1
 44
1.5
300

342
2CC
174
     6
178
     6
175
     0
176
     0
 93
-1073741824
 45
3.0
292
     0
297
     0
 46
5.0
 94
-1073741824
 47
1.0
 49
1.0
140
1.0
293
     1
141
0.0
294
     1
177
     0
142
5.0
295
     0
296
     0
143
0.125
1001
ACAD_MLEADERVER
1070
     2
  0
MLEADERSTYLE
  5
5A9
102
{ACAD_REACTORS
330
5A8
102
}
330
5A8
100
AcDbMLeaderStyle
170
     2
171
     1
172
     0
 90
        2
 40
0.0
 41
0.0
173
     1
 91
-1056964608
340
14
 92
       -2
290
     1
 42
2.0
291
     1
 43
0.36
  3
Standard
 44
4.0
300

342
10
174
     1
178
     6
175
     1
176
     0
 93
-1056964608
 45
4.0
292
     0
297
     0
 46
4.0
 94
-1056964608
 47
1.0
 49
1.0
140
1.0
293
     1
141
0.0
294
     1
177
     0
142
1.0
295
     0
296
     0
143
0.125
1001
ACAD_MLEADERVER
1070
     2
  0
MLINESTYLE
  5
13
102
{ACAD_REACTORS
330
E
102
}
330
E
100
AcDbMlineStyle
  2
STANDARD
 70
     0
  3

 62
     0
 51
90.0
 52
90.0
 71
     2
 49
0.5
 62
   256
  6
BYLAYER
 49
-0.5
 62
   256
  6
BYLAYER
  0
ACDBPLACEHOLDER
  5
4BB
102
{ACAD_REACTORS
330
4BA
102
}
330
4BA
  0
SCALE
  5
587
102
{ACAD_REACTORS
330
586
102
}
330
586
100
AcDbScale
 70
     0
300
1:1
140
1.0
141
1.0
290
     1
  0
SCALE
  5
588
102
{ACAD_REACTORS
330
586
102
}
330
586
100
AcDbScale
 70
     0
300
1:2
140
1.0
141
2.0
290
     0
  0
SCALE
  5
589
102
{ACAD_REACTORS
330
586
102
}
330
586
100
AcDbScale
 70
     0
300
1:4
140
1.0
141
4.0
290
     0
  0
SCALE
  5
58A
102
{ACAD_REACTORS
330
586
102
}
330
586
100
AcDbScale
 70
     0
300
1:5
140
1.0
141
5.0
290
     0
  0
SCALE
  5
58B
102
{ACAD_REACTORS
330
586
102
}
330
586
100
AcDbScale
 70
     0
300
1:8
140
1.0
141
8.0
290
     0
  0
SCALE
  5
58C
102
{ACAD_REACTORS
330
586
102
}
330
586
100
AcDbScale
 70
     0
300
1:10
140
1.0
141
10.0
290
     0
  0
SCALE
  5
58D
102
{ACAD_REACTORS
330
586
102
}
330
586
100
AcDbScale
 70
     0
300
1:16
140
1.0
141
16.0
290
     0
  0
SCALE
  5
58E
102
{ACAD_REACTORS
330
586
102
}
330
586
100
AcDbScale
 70
     0
300
1:20
140
1.0
141
20.0
290
     0
  0
SCALE
  5
58F
102
{ACAD_REACTORS
330
586
102
}
330
586
100
AcDbScale
 70
     0
300
1:30
140
1.0
141
30.0
290
     0
  0
SCALE
  5
590
102
{ACAD_REACTORS
330
586
102
}
330
586
100
AcDbScale
 70
     0
300
1:40
140
1.0
141
40.0
290
     0
  0
SCALE
  5
591
102
{ACAD_REACTORS
330
586
102
}
330
586
100
AcDbScale
 70
     0
300
1:50
140
1.0
141
50.0
290
     0
  0
SCALE
  5
592
102
{ACAD_REACTORS
330
586
102
}
330
586
100
AcDbScale
 70
     0
300
1:100
140
1.0
141
100.0
290
     0
  0
SCALE
  5
593
102
{ACAD_REACTORS
330
586
102
}
330
586
100
AcDbScale
 70
     0
300
2:1
140
2.0
141
1.0
290
     0
  0
SCALE
  5
594
102
{ACAD_REACTORS
330
586
102
}
330
586
100
AcDbScale
 70
     0
300
4:1
140
4.0
141
1.0
290
     0
  0
SCALE
  5
595
102
{ACAD_REACTORS
330
586
102
}
330
586
100
AcDbScale
 70
     0
300
8:1
140
8.0
141
1.0
290
     0
  0
SCALE
  5
596
102
{ACAD_REACTORS
330
586
102
}
330
586
100
AcDbScale
 70
     0
300
10:1
140
10.0
141
1.0
290
     0
  0
SCALE
  5
597
102
{ACAD_REACTORS
330
586
102
}
330
586
100
AcDbScale
 70
     0
300
100:1
140
100.0
141
1.0
290
     0
  0
SCALE
  5
598
102
{ACAD_REACTORS
330
586
102
}
330
586
100
AcDbScale
 70
     0
300
1/128" = 1'-0"
140
0.0078125
141
12.0
290
     0
  0
SCALE
  5
599
102
{ACAD_REACTORS
330
586
102
}
330
586
100
AcDbScale
 70
     0
300
1/64" = 1'-0"
140
0.015625
141
12.0
290
     0
  0
SCALE
  5
59A
102
{ACAD_REACTORS
330
586
102
}
330
586
100
AcDbScale
 70
     0
300
1/32" = 1'-0"
140
0.03125
141
12.0
290
     0
  0
SCALE
  5
59B
102
{ACAD_REACTORS
330
586
102
}
330
586
100
AcDbScale
 70
     0
300
1/16" = 1'-0"
140
0.0625
141
12.0
290
     0
  0
SCALE
  5
59C
102
{ACAD_REACTORS
330
586
102
}
330
586
100
AcDbScale
 70
     0
300
3/32" = 1'-0"
140
0.09375
141
12.0
290
     0
  0
SCALE
  5
59D
102
{ACAD_REACTORS
330
586
102
}
330
586
100
AcDbScale
 70
     0
300
1/8" = 1'-0"
140
0.125
141
12.0
290
     0
  0
SCALE
  5
59E
102
{ACAD_REACTORS
330
586
102
}
330
586
100
AcDbScale
 70
     0
300
3/16" = 1'-0"
140
0.1875
141
12.0
290
     0
  0
SCALE
  5
59F
102
{ACAD_REACTORS
330
586
102
}
330
586
100
AcDbScale
 70
     0
300
1/4" = 1'-0"
140
0.25
141
12.0
290
     0
  0
SCALE
  5
5A0
102
{ACAD_REACTORS
330
586
102
}
330
586
100
AcDbScale
 70
     0
300
3/8" = 1'-0"
140
0.375
141
12.0
290
     0
  0
SCALE
  5
5A1
102
{ACAD_REACTORS
330
586
102
}
330
586
100
AcDbScale
 70
     0
300
1/2" = 1'-0"
140
0.5
141
12.0
290
     0
  0
SCALE
  5
5A2
102
{ACAD_REACTORS
330
586
102
}
330
586
100
AcDbScale
 70
     0
300
3/4" = 1'-0"
140
0.75
141
12.0
290
     0
  0
SCALE
  5
5A3
102
{ACAD_REACTORS
330
586
102
}
330
586
100
AcDbScale
 70
     0
300
1" = 1'-0"
140
1.0
141
12.0
290
     0
  0
SCALE
  5
5A4
102
{ACAD_REACTORS
330
586
102
}
330
586
100
AcDbScale
 70
     0
300
1-1/2" = 1'-0"
140
1.5
141
12.0
290
     0
  0
SCALE
  5
5A5
102
{ACAD_REACTORS
330
586
102
}
330
586
100
AcDbScale
 70
     0
300
3" = 1'-0"
140
3.0
141
12.0
290
     0
  0
SCALE
  5
5A6
102
{ACAD_REACTORS
330
586
102
}
330
586
100
AcDbScale
 70
     0
300
6" = 1'-0"
140
6.0
141
12.0
290
     0
  0
SCALE
  5
5A7
102
{ACAD_REACTORS
330
586
102
}
330
586
100
AcDbScale
 70
     0
300
1'-0" = 1'-0"
140
12.0
141
12.0
290
     0
  0
ACDBSECTIONVIEWSTYLE
  5
967
102
{ACAD_XDICTIONARY
360
4C16
102
}
102
{ACAD_REACTORS
330
5F6
102
}
330
5F6
100
AcDbModelDocViewStyle
 70
     0
  3
Imperial24
290
     0
100
AcDbSectionViewStyle
 70
     0
 71
     0
 90
       78
 71
     1
340
10
 40
0.24
340
0
340
0
 40
0.24
300
I, O, Q, S, X, Z
 40
0.48
 90
        3
 40
0.18
 90
        1
 71
     2
340
16
 90
       25
340
16
 90
       50
 40
0.24
 40
0.0
 40
0.24
 71
     3
340
10
 40
0.24
 90
        1
 40
0.75
 90
        1
300
%<\AcVar ViewType \f "%tc1">% %<\AcVar ViewSectionStartId>%-%<\AcVar ViewSectionEndId>%\PSCALE %<\AcVar ViewScale \f "%sn">%
 71
     4
300
ANSI31
 40
1.0
 90
        0
290
     0
290
     0
 90
        6
 40
0.0
 40
1.570796326794896
 40
0.2617993877991494
 40
1.308996938995747
 40
-0.2617993877991494
 40
1.832595714594046
  0
ACDBSECTIONVIEWSTYLE
  5
5F7
102
{ACAD_XDICTIONARY
360
4C12
102
}
102
{ACAD_REACTORS
330
5F6
102
}
330
5F6
100
AcDbModelDocViewStyle
 70
     0
  3
Metric50
290
     0
100
AcDbSectionViewStyle
 70
     0
 71
     0
 90
      102
 71
     1
340
10
 40
5.0
340
0
340
0
 40
5.0
300
I, O, Q, S, X, Z
 40
10.0
 90
        0
 40
2.5
 90
        0
 71
     2
340
16
 90
       25
340
16
 90
       50
 40
5.0
 40
2.5
 40
5.0
 71
     3
340
10
 40
5.0
 90
        0
 40
15.0
 90
        1
300
%<\AcVar ViewSectionStartId>%-%<\AcVar ViewSectionEndId>% (%<\AcVar ViewScale \f "%sn">%)
 71
     4
300
ANSI31
 40
1.0
 90
        0
290
     0
290
     0
 90
        6
 40
0.0
 40
1.570796326794896
 40
0.2617993877991494
 40
1.308996938995747
 40
-0.2617993877991494
 40
1.832595714594046
  0
TABLESTYLE
  5
4F6
102
{ACAD_XDICTIONARY
360
5C5
102
}
102
{ACAD_REACTORS
330
4F5
102
}
330
4F5
100
AcDbTableStyle
  3
Standard
 70
     0
 71
     0
 40
1.5
 41
1.5
280
     0
281
     0
  7
STANDARD
140
4.5
170
     2
 62
     0
 63
     7
283
     0
274
    -2
284
     1
 64
     0
275
    -2
285
     1
 65
     0
276
    -2
286
     1
 66
     0
277
    -2
287
     1
 67
     0
278
    -2
288
     1
 68
     0
279
    -2
289
     1
 69
     0
  7
STANDARD
140
6.0
170
     5
 62
     0
 63
     7
283
     0
274
    -2
284
     1
 64
     0
275
    -2
285
     1
 65
     0
276
    -2
286
     1
 66
     0
277
    -2
287
     1
 67
     0
278
    -2
288
     1
 68
     0
279
    -2
289
     1
 69
     0
  7
STANDARD
140
4.5
170
     5
 62
     0
 63
     7
283
     0
274
    -2
284
     1
 64
     0
275
    -2
285
     1
 65
     0
276
    -2
286
     1
 66
     0
277
    -2
287
     1
 67
     0
278
    -2
288
     1
 68
     0
279
    -2
289
     1
 69
     0
  0
VISUALSTYLE
  5
57B
102
{ACAD_XDICTIONARY
360
4BE8
102
}
102
{ACAD_REACTORS
330
575
102
}
330
575
100
AcDbVisualStyle
  2
2dWireframe
 70
     4
 71
     0
 72
     2
 73
     0
 90
        0
 40
-0.6
 41
-30.0
 62
     5
 63
     7
 74
     1
 91
        4
 64
     7
 65
   257
 75
     1
175
     1
 42
1.0
 92
        0
 66
   257
 43
1.0
 76
     1
 77
     6
 78
     2
 67
     7
 79
     5
170
     0
171
     0
290
     0
174
     0
 93
        1
 44
0.0
173
     0
291
     0
 45
0.0
1001
ACAD
1000
AcDbSavedByObjectVersion
1070
     0
  0
VISUALSTYLE
  5
57D
102
{ACAD_XDICTIONARY
360
4BEC
102
}
102
{ACAD_REACTORS
330
575
102
}
330
575
100
AcDbVisualStyle
  2
3D Hidden
 70
     6
 71
     1
 72
     2
 73
     2
 90
        0
 40
-0.6
 41
-30.0
 62
     5
 63
     7
 74
     2
 91
        2
 64
     7
 65
   257
 75
     2
175
     1
 42
40.0
 92
        0
 66
   257
 43
1.0
 76
     1
 77
     6
 78
     2
 67
     7
 79
     3
170
     0
171
     0
290
     0
174
     0
 93
        1
 44
0.0
173
     0
291
     0
 45
0.0
1001
ACAD
1000
AcDbSavedByObjectVersion
1070
     0
  0
VISUALSTYLE
  5
57C
102
{ACAD_XDICTIONARY
360
4BEA
102
}
102
{ACAD_REACTORS
330
575
102
}
330
575
100
AcDbVisualStyle
  2
3dWireframe
 70
     5
 71
     0
 72
     2
 73
     0
 90
        0
 40
-0.6
 41
-30.0
 62
     5
 63
     7
 74
     1
 91
        4
 64
     7
 65
   257
 75
     1
175
     1
 42
1.0
 92
        0
 66
   257
 43
1.0
 76
     1
 77
     6
 78
     2
 67
     7
 79
     5
170
     0
171
     0
290
     0
174
     0
 93
        1
 44
0.0
173
     0
291
     0
 45
0.0
1001
ACAD
1000
AcDbSavedByObjectVersion
1070
     0
  0
VISUALSTYLE
  5
57A
102
{ACAD_XDICTIONARY
360
4BE6
102
}
102
{ACAD_REACTORS
330
575
102
}
330
575
100
AcDbVisualStyle
  2
Basic
 70
     7
 71
     1
 72
     0
 73
     1
 90
        0
 40
-0.6
 41
-30.0
 62
     5
 63
     7
 74
     0
 91
        4
 64
     7
 65
   257
 75
     1
175
     1
 42
1.0
 92
        8
 66
     7
 43
1.0
 76
     1
 77
     6
 78
     2
 67
     7
 79
     5
170
     0
171
     0
290
     0
174
     0
 93
        1
 44
0.0
173
     0
291
     1
 45
0.0
1001
ACAD
1000
AcDbSavedByObjectVersion
1070
     0
  0
VISUALSTYLE
  5
581
102
{ACAD_XDICTIONARY
360
4BF4
102
}
102
{ACAD_REACTORS
330
575
102
}
330
575
100
AcDbVisualStyle
  2
Brighten
 70
    12
 71
     2
 72
     2
 73
     0
 90
        0
 40
-0.6
 41
-30.0
 62
     5
 63
     7
 74
     1
 91
        4
 64
     7
 65
   257
 75
     1
175
     1
 42
1.0
 92
        8
 66
     7
 43
1.0
 76
     1
 77
     6
 78
     2
 67
     7
 79
     5
170
     0
171
     0
290
     0
174
     0
 93
        1
 44
50.0
173
     0
291
     1
 45
0.0
1001
ACAD
1000
AcDbSavedByObjectVersion
1070
     0
  0
VISUALSTYLE
  5
585
102
{ACAD_XDICTIONARY
360
4BFC
102
}
102
{ACAD_REACTORS
330
575
102
}
330
575
100
AcDbVisualStyle
  2
ColorChange
 70
    16
 71
     2
 72
     2
 73
     3
 90
        0
 40
-0.6
 41
-30.0
 62
     5
 63
     8
 74
     1
 91
        4
 64
     7
 65
   257
 75
     1
175
     1
 42
1.0
 92
        8
 66
     8
 43
1.0
 76
     1
 77
     6
 78
     2
 67
     7
 79
     5
170
     0
171
     0
290
     0
174
     0
 93
        1
 44
0.0
173
     0
291
     1
 45
0.0
1001
ACAD
1000
AcDbSavedByObjectVersion
1070
     0
  0
VISUALSTYLE
  5
57E
102
{ACAD_XDICTIONARY
360
4BEE
102
}
102
{ACAD_REACTORS
330
575
102
}
330
575
100
AcDbVisualStyle
  2
Conceptual
 70
     9
 71
     3
 72
     2
 73
     0
 90
        0
 40
-0.6
 41
-30.0
 62
     5
 63
     7
 74
     2
 91
        2
 64
     7
 65
   257
 75
     1
175
     1
 42
40.0
 92
        8
 66
     7
 43
1.0
 76
     1
 77
     6
 78
     2
 67
     7
 79
     3
170
     0
171
     0
290
     0
174
     0
 93
        1
 44
0.0
173
     0
291
     0
 45
0.0
1001
ACAD
1000
AcDbSavedByObjectVersion
1070
     0
  0
VISUALSTYLE
  5
580
102
{ACAD_XDICTIONARY
360
4BF2
102
}
102
{ACAD_REACTORS
330
575
102
}
330
575
100
AcDbVisualStyle
  2
Dim
 70
    11
 71
     2
 72
     2
 73
     0
 90
        0
 40
-0.6
 41
-30.0
 62
     5
 63
     7
 74
     1
 91
        4
 64
     7
 65
   257
 75
     1
175
     1
 42
1.0
 92
        8
 66
     7
 43
1.0
 76
     1
 77
     6
 78
     2
 67
     7
 79
     5
170
     0
171
     0
290
     0
174
     0
 93
        1
 44
-50.0
173
     0
291
     1
 45
0.0
1001
ACAD
1000
AcDbSavedByObjectVersion
1070
     0
  0
VISUALSTYLE
  5
5F5
102
{ACAD_XDICTIONARY
360
4C10
102
}
102
{ACAD_REACTORS
330
575
102
}
330
575
100
AcDbVisualStyle
  2
EdgeColorOff
 70
    22
 71
     2
 72
     2
 73
     0
 90
        0
 40
-0.6
 41
-30.0
 62
     5
 63
     7
 74
     1
 91
        4
 64
     7
 65
   257
 75
     1
175
     1
 42
1.0
 92
        8
 66
     7
 43
1.0
 76
     1
 77
     6
 78
     2
 67
     7
 79
     5
170
     0
171
     0
290
     0
174
     0
 93
        1
 44
0.0
173
     0
291
     1
 45
0.0
1001
ACAD
1000
AcDbSavedByObjectVersion
1070
     0
  0
VISUALSTYLE
  5
584
102
{ACAD_XDICTIONARY
360
4BFA
102
}
102
{ACAD_REACTORS
330
575
102
}
330
575
100
AcDbVisualStyle
  2
Facepattern
 70
    15
 71
     2
 72
     2
 73
     0
 90
        0
 40
-0.6
 41
-30.0
 62
     5
 63
     7
 74
     1
 91
        4
 64
     7
 65
   257
 75
     1
175
     1
 42
1.0
 92
        8
 66
     7
 43
1.0
 76
     1
 77
     6
 78
     2
 67
     7
 79
     5
170
     0
171
     0
290
     0
174
     0
 93
        1
 44
0.0
173
     0
291
     1
 45
0.0
1001
ACAD
1000
AcDbSavedByObjectVersion
1070
     0
  0
VISUALSTYLE
  5
576
102
{ACAD_XDICTIONARY
360
4BDE
102
}
102
{ACAD_REACTORS
330
575
102
}
330
575
100
AcDbVisualStyle
  2
Flat
 70
     0
 71
     2
 72
     1
 73
     1
 90
        2
 40
-0.6
 41
30.0
 62
     5
 63
     7
 74
     0
 91
        4
 64
     7
 65
   257
 75
     1
175
     1
 42
1.0
 92
        8
 66
     7
 43
1.0
 76
     1
 77
     6
 78
     2
 67
     7
 79
     5
170
     0
171
     0
290
     0
174
     0
 93
       13
 44
0.0
173
     0
291
     1
 45
0.0
1001
ACAD
1000
AcDbSavedByObjectVersion
1070
     0
  0
VISUALSTYLE
  5
577
102
{ACAD_XDICTIONARY
360
4BE0
102
}
102
{ACAD_REACTORS
330
575
102
}
330
575
100
AcDbVisualStyle
  2
FlatWithEdges
 70
     1
 71
     2
 72
     1
 73
     1
 90
        2
 40
-0.6
 41
30.0
 62
     5
 63
     7
 74
     1
 91
        4
 64
     7
 65
   257
 75
     1
175
     1
 42
1.0
 92
        0
 66
   257
 43
1.0
 76
     1
 77
     6
 78
     2
 67
     7
 79
     5
170
     0
171
     0
290
     0
174
     0
 93
       13
 44
0.0
173
     0
291
     1
 45
0.0
1001
ACAD
1000
AcDbSavedByObjectVersion
1070
     0
  0
VISUALSTYLE
  5
578
102
{ACAD_XDICTIONARY
360
4BE2
102
}
102
{ACAD_REACTORS
330
575
102
}
330
575
100
AcDbVisualStyle
  2
Gouraud
 70
     2
 71
     2
 72
     2
 73
     1
 90
        2
 40
-0.6
 41
30.0
 62
     5
 63
     7
 74
     0
 91
        4
 64
     7
 65
   257
 75
     1
175
     1
 42
1.0
 92
        0
 66
     7
 43
1.0
 76
     1
 77
     6
 78
     2
 67
     7
 79
     5
170
     0
171
     0
290
     0
174
     0
 93
       13
 44
0.0
173
     0
291
     1
 45
0.0
1001
ACAD
1000
AcDbSavedByObjectVersion
1070
     0
  0
VISUALSTYLE
  5
579
102
{ACAD_XDICTIONARY
360
4BE4
102
}
102
{ACAD_REACTORS
330
575
102
}
330
575
100
AcDbVisualStyle
  2
GouraudWithEdges
 70
     3
 71
     2
 72
     2
 73
     1
 90
        2
 40
-0.6
 41
30.0
 62
     5
 63
     7
 74
     1
 91
        4
 64
     7
 65
   257
 75
     1
175
     1
 42
1.0
 92
        0
 66
   257
 43
1.0
 76
     1
 77
     6
 78
     2
 67
     7
 79
     5
170
     0
171
     0
290
     0
174
     0
 93
       13
 44
0.0
173
     0
291
     1
 45
0.0
1001
ACAD
1000
AcDbSavedByObjectVersion
1070
     0
  0
VISUALSTYLE
  5
5ED
102
{ACAD_XDICTIONARY
360
4C00
102
}
102
{ACAD_REACTORS
330
575
102
}
330
575
100
AcDbVisualStyle
  2
Hidden
 70
     6
 71
     1
 72
     2
 73
     2
 90
        0
 40
-0.6
 41
-30.0
 62
     5
 63
     7
 74
     2
 91
        2
 64
     7
 65
   257
 75
     2
175
     1
 42
40.0
 92
        0
 66
   257
 43
1.0
 76
     1
 77
     6
 78
     2
 67
     7
 79
     3
170
     0
171
     0
290
     0
174
     0
 93
        1
 44
0.0
173
     0
291
     0
 45
0.0
1001
ACAD
1000
AcDbSavedByObjectVersion
1070
     0
  0
VISUALSTYLE
  5
5F3
102
{ACAD_XDICTIONARY
360
4C0C
102
}
102
{ACAD_REACTORS
330
575
102
}
330
575
100
AcDbVisualStyle
  2
JitterOff
 70
    20
 71
     2
 72
     2
 73
     0
 90
        0
 40
-0.6
 41
-30.0
 62
     5
 63
     7
 74
     1
 91
        4
 64
     7
 65
   257
 75
     1
175
     1
 42
1.0
 92
       10
 66
     7
 43
1.0
 76
     1
 77
     6
 78
     2
 67
     7
 79
     5
170
     0
171
     0
290
     0
174
     0
 93
        1
 44
0.0
173
     0
291
     1
 45
0.0
1001
ACAD
1000
AcDbSavedByObjectVersion
1070
     0
  0
VISUALSTYLE
  5
583
102
{ACAD_XDICTIONARY
360
4BF8
102
}
102
{ACAD_REACTORS
330
575
102
}
330
575
100
AcDbVisualStyle
  2
Linepattern
 70
    14
 71
     2
 72
     2
 73
     0
 90
        0
 40
-0.6
 41
-30.0
 62
     5
 63
     7
 74
     1
 91
        4
 64
     7
 65
   257
 75
     7
175
     7
 42
1.0
 92
        8
 66
     7
 43
1.0
 76
     1
 77
     6
 78
     2
 67
     7
 79
     5
170
     0
171
     0
290
     0
174
     0
 93
        1
 44
0.0
173
     0
291
     1
 45
0.0
1001
ACAD
1000
AcDbSavedByObjectVersion
1070
     0
  0
VISUALSTYLE
  5
5F4
102
{ACAD_XDICTIONARY
360
4C0E
102
}
102
{ACAD_REACTORS
330
575
102
}
330
575
100
AcDbVisualStyle
  2
OverhangOff
 70
    21
 71
     2
 72
     2
 73
     0
 90
        0
 40
-0.6
 41
-30.0
 62
     5
 63
     7
 74
     1
 91
        4
 64
     7
 65
   257
 75
     1
175
     1
 42
1.0
 92
        9
 66
     7
 43
1.0
 76
     1
 77
     6
 78
     2
 67
     7
 79
     5
170
     0
171
     0
290
     0
174
     0
 93
        1
 44
0.0
173
     0
291
     1
 45
0.0
1001
ACAD
1000
AcDbSavedByObjectVersion
1070
     0
  0
VISUALSTYLE
  5
57F
102
{ACAD_XDICTIONARY
360
4BF0
102
}
102
{ACAD_REACTORS
330
575
102
}
330
575
100
AcDbVisualStyle
  2
Realistic
 70
     8
 71
     2
 72
     2
 73
     0
 90
        0
 40
-0.6
 41
-30.0
 62
     5
 63
     7
 74
     1
 91
        0
 64
     7
 65
   257
 75
     1
175
     1
 42
1.0
 92
        8
 66
     8
 43
1.0
 76
     1
 77
     6
 78
     2
 67
     7
 79
     5
170
     0
171
     0
290
     0
174
     0
 93
       13
 44
0.0
173
     0
291
     0
 45
0.0
1001
ACAD
1000
AcDbSavedByObjectVersion
1070
     0
  0
VISUALSTYLE
  5
5F2
102
{ACAD_XDICTIONARY
360
4C0A
102
}
102
{ACAD_REACTORS
330
575
102
}
330
575
100
AcDbVisualStyle
  2
Shaded
 70
    27
 71
     2
 72
     2
 73
     1
 90
        2
 40
-0.6
 41
30.0
 62
     5
 63
     7
 74
     0
 91
        4
 64
     7
 65
   257
 75
     1
175
     1
 42
1.0
 92
        8
 66
   257
 43
1.0
 76
     1
 77
     6
 78
     2
 67
     8
 79
     3
170
     0
171
     0
290
     0
174
     0
 93
        5
 44
0.0
173
     0
291
     0
 45
0.0
1001
ACAD
1000
AcDbSavedByObjectVersion
1070
     0
  0
VISUALSTYLE
  5
5F1
102
{ACAD_XDICTIONARY
360
4C08
102
}
102
{ACAD_REACTORS
330
575
102
}
330
575
100
AcDbVisualStyle
  2
Shaded with edges
 70
    26
 71
     2
 72
     2
 73
     1
 90
        2
 40
-0.6
 41
30.0
 62
     5
 63
     7
 74
     1
 91
       10
 64
     7
 65
   257
 75
     2
175
     1
 42
1.0
 92
        8
 66
   257
 43
1.0
 76
     1
 77
     6
 78
     2
 67
     7
 79
     3
170
     0
171
     0
290
     0
174
     0
 93
        5
 44
0.0
173
     0
291
     0
 45
0.0
1001
ACAD
1000
AcDbSavedByObjectVersion
1070
     0
  0
VISUALSTYLE
  5
5EE
102
{ACAD_XDICTIONARY
360
4C02
102
}
102
{ACAD_REACTORS
330
575
102
}
330
575
100
AcDbVisualStyle
  2
Shades of Gray
 70
    23
 71
     2
 72
     2
 73
     3
 90
        0
 40
-0.6
 41
-30.0
 62
     5
 63
     7
 74
     2
 91
        2
 64
     7
 65
     7
 75
     1
175
     1
 42
40.0
 92
        8
 66
     7
 43
1.0
 76
     1
 77
     6
 78
     2
 67
     7
 79
     3
170
     0
171
     0
290
     0
174
     0
 93
        1
 44
0.0
173
     0
291
     0
 45
0.0
1001
ACAD
1000
AcDbSavedByObjectVersion
1070
     0
  0
VISUALSTYLE
  5
5EF
102
{ACAD_XDICTIONARY
360
4C04
102
}
102
{ACAD_REACTORS
330
575
102
}
330
575
100
AcDbVisualStyle
  2
Sketchy
 70
    24
 71
     1
 72
     2
 73
     2
 90
        0
 40
-0.6
 41
-30.0
 62
     5
 63
     7
 74
     2
 91
        2
 64
     7
 65
     7
 75
     1
175
     1
 42
40.0
 92
       11
 66
     7
 43
1.0
 76
     1
 77
     6
 78
     2
 67
     7
 79
     6
170
     0
171
     0
290
     0
174
     0
 93
        1
 44
0.0
173
     0
291
     0
 45
0.0
1001
ACAD
1000
AcDbSavedByObjectVersion
1070
     0
  0
VISUALSTYLE
  5
582
102
{ACAD_XDICTIONARY
360
4BF6
102
}
102
{ACAD_REACTORS
330
575
102
}
330
575
100
AcDbVisualStyle
  2
Thicken
 70
    13
 71
     2
 72
     2
 73
     0
 90
        0
 40
-0.6
 41
-30.0
 62
     5
 63
     7
 74
     1
 91
        4
 64
     7
 65
   257
 75
     1
175
     1
 42
1.0
 92
       12
 66
     7
 43
1.0
 76
     1
 77
     6
 78
     2
 67
     7
 79
     5
170
     0
171
     0
290
     0
174
     0
 93
        1
 44
0.0
173
     0
291
     1
 45
0.0
1001
ACAD
1000
AcDbSavedByObjectVersion
1070
     0
  0
VISUALSTYLE
  5
5EC
102
{ACAD_XDICTIONARY
360
4BFE
102
}
102
{ACAD_REACTORS
330
575
102
}
330
575
100
AcDbVisualStyle
  2
Wireframe
 70
     5
 71
     0
 72
     2
 73
     0
 90
        0
 40
-0.6
 41
-30.0
 62
     5
 63
     7
 74
     1
 91
        4
 64
     7
 65
   257
 75
     1
175
     1
 42
1.0
 92
        0
 66
   257
 43
1.0
 76
     1
 77
     6
 78
     2
 67
     7
 79
     3
170
     0
171
     0
290
     0
174
     0
 93
        1
 44
0.0
173
     0
291
     0
 45
0.0
1001
ACAD
1000
AcDbSavedByObjectVersion
1070
     0
  0
VISUALSTYLE
  5
5F0
102
{ACAD_XDICTIONARY
360
4C06
102
}
102
{ACAD_REACTORS
330
575
102
}
330
575
100
AcDbVisualStyle
  2
X-Ray
 70
    25
 71
     2
 72
     2
 73
     1
 90
        1
 40
0.5
 41
-30.0
 62
     5
 63
     7
 74
     1
 91
        0
 64
     7
 65
   257
 75
     1
175
     1
 42
1.0
 92
        8
 66
     7
 43
1.0
 76
     1
 77
     6
 78
     2
 67
     7
 79
     3
170
     0
171
     0
290
     0
174
     0
 93
       13
 44
0.0
173
     0
291
     0
 45
0.0
1001
ACAD
1000
AcDbSavedByObjectVersion
1070
     0
  0
DICTIONARYVAR
  5
5CA
102
{ACAD_REACTORS
330
4FD
102
}
330
4FD
100
DictionaryVariables
280
     0
  1
1:1
  0
DICTIONARYVAR
  5
5C8
102
{ACAD_REACTORS
330
4FD
102
}
330
4FD
100
DictionaryVariables
280
     0
  1
STANDARD
  0
DICTIONARYVAR
  5
4FE
102
{ACAD_REACTORS
330
4FD
102
}
330
4FD
100
DictionaryVariables
280
     0
  1
STANDARD
  0
DICTIONARYVAR
  5
618
102
{ACAD_REACTORS
330
4FD
102
}
330
4FD
100
DictionaryVariables
280
     0
  1
Metric50
  0
DICTIONARYVAR
  5
619
102
{ACAD_REACTORS
330
4FD
102
}
330
4FD
100
DictionaryVariables
280
     0
  1
Metric50
  0
DICTIONARYVAR
  5
4B84
102
{ACAD_REACTORS
330
4FD
102
}
330
4FD
100
DictionaryVariables
280
     0
  1
1
  0
DICTIONARYVAR
  5
4B82
102
{ACAD_REACTORS
330
4FD
102
}
330
4FD
100
DictionaryVariables
280
     0
  1
0
  0
DICTIONARYVAR
  5
61A
102
{ACAD_REACTORS
330
4FD
102
}
330
4FD
100
DictionaryVariables
280
     0
  1
1
  0
DICTIONARYVAR
  5
61B
102
{ACAD_REACTORS
330
4FD
102
}
330
4FD
100
DictionaryVariables
280
     0
  1
15
  0
DICTIONARYVAR
  5
5CB
102
{ACAD_REACTORS
330
4FD
102
}
330
4FD
100
DictionaryVariables
280
     0
  1
0
  0
DICTIONARYVAR
  5
5C9
102
{ACAD_REACTORS
330
4FD
102
}
330
4FD
100
DictionaryVariables
280
     0
  1
0
  0
DICTIONARYVAR
  5
4B85
102
{ACAD_REACTORS
330
4FD
102
}
330
4FD
100
DictionaryVariables
280
     0
  1
1
  0
DICTIONARYVAR
  5
4B81
102
{ACAD_REACTORS
330
4FD
102
}
330
4FD
100
DictionaryVariables
280
     0
  1
127
  0
DICTIONARYVAR
  5
4B83
102
{ACAD_REACTORS
330
4FD
102
}
330
4FD
100
DictionaryVariables
280
     0
  1
0
  0
XRECORD
  5
973
102
{ACAD_REACTORS
330
972
102
}
330
972
100
AcDbXrecord
280
     1
330
851
330
966
330
95C
  0
DICTIONARY
  5
4C18
330
968
100
AcDbDictionary
280
     1
281
     1
  3
ACAD_XREC_ROUNDTRIP
360
4C19
  0
DICTIONARY
  5
4C14
330
5F9
100
AcDbDictionary
280
     1
281
     1
  3
ACAD_XREC_ROUNDTRIP
360
4C15
  0
DICTIONARY
  5
997
330
4BE
100
AcDbDictionary
280
     1
281
     1
  3
ACAD_XREC_ROUNDTRIP
360
4BD7
  3
ADSK_XREC_LAYOUTTHUMBNAIL
360
3E7C
  0
DICTIONARY
  5
4BD8
330
4BF
100
AcDbDictionary
280
     1
281
     1
  3
ACAD_XREC_ROUNDTRIP
360
4BD9
  0
DICTIONARY
  5
566
330
565
100
AcDbDictionary
280
     1
281
     1
  3
ACAD_XREC_ROUNDTRIP
360
4BDC
  3
BUMPTILE
360
568
  3
DIFFUSETILE
360
567
  3
OPACITYTILE
360
56B
  3
REFLECTIONTILE
360
56A
  3
REFRACTIONTILE
360
56C
  3
SPECULARTILE
360
569
  0
DICTIONARY
  5
55E
330
55D
100
AcDbDictionary
280
     1
281
     1
  3
ACAD_XREC_ROUNDTRIP
360
4BDB
  3
BUMPTILE
360
560
  3
DIFFUSETILE
360
55F
  3
OPACITYTILE
360
563
  3
REFLECTIONTILE
360
562
  3
REFRACTIONTILE
360
564
  3
SPECULARTILE
360
561
  0
DICTIONARY
  5
56E
330
56D
100
AcDbDictionary
280
     1
281
     1
  3
ACAD_XREC_ROUNDTRIP
360
4BDD
  3
BUMPTILE
360
570
  3
DIFFUSETILE
360
56F
  3
OPACITYTILE
360
573
  3
REFLECTIONTILE
360
572
  3
REFRACTIONTILE
360
574
  3
SPECULARTILE
360
571
  0
DICTIONARY
  5
4C1A
330
4170
100
AcDbDictionary
280
     1
281
     1
  3
ACAD_XREC_ROUNDTRIP
360
4C1B
  0
DICTIONARY
  5
4C16
330
967
100
AcDbDictionary
280
     1
281
     1
  3
ACAD_XREC_ROUNDTRIP
360
4C17
  0
DICTIONARY
  5
4C12
330
5F7
100
AcDbDictionary
280
     1
281
     1
  3
ACAD_XREC_ROUNDTRIP
360
4C13
  0
DICTIONARY
  5
5C5
330
4F6
100
AcDbDictionary
280
     1
281
     1
  3
ACAD_ROUNDTRIP_2008_TABLESTYLE_CELLSTYLEMAP
360
4BD2
  3
ACAD_XREC_ROUNDTRIP
360
4BDA
  0
DICTIONARY
  5
4BE8
330
57B
100
AcDbDictionary
280
     1
281
     1
  3
ACAD_XREC_ROUNDTRIP
360
4BE9
  0
DICTIONARY
  5
4BEC
330
57D
100
AcDbDictionary
280
     1
281
     1
  3
ACAD_XREC_ROUNDTRIP
360
4BED
  0
DICTIONARY
  5
4BEA
330
57C
100
AcDbDictionary
280
     1
281
     1
  3
ACAD_XREC_ROUNDTRIP
360
4BEB
  0
DICTIONARY
  5
4BE6
330
57A
100
AcDbDictionary
280
     1
281
     1
  3
ACAD_XREC_ROUNDTRIP
360
4BE7
  0
DICTIONARY
  5
4BF4
330
581
100
AcDbDictionary
280
     1
281
     1
  3
ACAD_XREC_ROUNDTRIP
360
4BF5
  0
DICTIONARY
  5
4BFC
330
585
100
AcDbDictionary
280
     1
281
     1
  3
ACAD_XREC_ROUNDTRIP
360
4BFD
  0
DICTIONARY
  5
4BEE
330
57E
100
AcDbDictionary
280
     1
281
     1
  3
ACAD_XREC_ROUNDTRIP
360
4BEF
  0
DICTIONARY
  5
4BF2
330
580
100
AcDbDictionary
280
     1
281
     1
  3
ACAD_XREC_ROUNDTRIP
360
4BF3
  0
DICTIONARY
  5
4C10
330
5F5
100
AcDbDictionary
280
     1
281
     1
  3
ACAD_XREC_ROUNDTRIP
360
4C11
  0
DICTIONARY
  5
4BFA
330
584
100
AcDbDictionary
280
     1
281
     1
  3
ACAD_XREC_ROUNDTRIP
360
4BFB
  0
DICTIONARY
  5
4BDE
330
576
100
AcDbDictionary
280
     1
281
     1
  3
ACAD_XREC_ROUNDTRIP
360
4BDF
  0
DICTIONARY
  5
4BE0
330
577
100
AcDbDictionary
280
     1
281
     1
  3
ACAD_XREC_ROUNDTRIP
360
4BE1
  0
DICTIONARY
  5
4BE2
330
578
100
AcDbDictionary
280
     1
281
     1
  3
ACAD_XREC_ROUNDTRIP
360
4BE3
  0
DICTIONARY
  5
4BE4
330
579
100
AcDbDictionary
280
     1
281
     1
  3
ACAD_XREC_ROUNDTRIP
360
4BE5
  0
DICTIONARY
  5
4C00
330
5ED
100
AcDbDictionary
280
     1
281
     1
  3
ACAD_XREC_ROUNDTRIP
360
4C01
  0
DICTIONARY
  5
4C0C
330
5F3
100
AcDbDictionary
280
     1
281
     1
  3
ACAD_XREC_ROUNDTRIP
360
4C0D
  0
DICTIONARY
  5
4BF8
330
583
100
AcDbDictionary
280
     1
281
     1
  3
ACAD_XREC_ROUNDTRIP
360
4BF9
  0
DICTIONARY
  5
4C0E
330
5F4
100
AcDbDictionary
280
     1
281
     1
  3
ACAD_XREC_ROUNDTRIP
360
4C0F
  0
DICTIONARY
  5
4BF0
330
57F
100
AcDbDictionary
280
     1
281
     1
  3
ACAD_XREC_ROUNDTRIP
360
4BF1
  0
DICTIONARY
  5
4C0A
330
5F2
100
AcDbDictionary
280
     1
281
     1
  3
ACAD_XREC_ROUNDTRIP
360
4C0B
  0
DICTIONARY
  5
4C08
330
5F1
100
AcDbDictionary
280
     1
281
     1
  3
ACAD_XREC_ROUNDTRIP
360
4C09
  0
DICTIONARY
  5
4C02
330
5EE
100
AcDbDictionary
280
     1
281
     1
  3
ACAD_XREC_ROUNDTRIP
360
4C03
  0
DICTIONARY
  5
4C04
330
5EF
100
AcDbDictionary
280
     1
281
     1
  3
ACAD_XREC_ROUNDTRIP
360
4C05
  0
DICTIONARY
  5
4BF6
330
582
100
AcDbDictionary
280
     1
281
     1
  3
ACAD_XREC_ROUNDTRIP
360
4BF7
  0
DICTIONARY
  5
4BFE
330
5EC
100
AcDbDictionary
280
     1
281
     1
  3
ACAD_XREC_ROUNDTRIP
360
4BFF
  0
DICTIONARY
  5
4C06
330
5F0
100
AcDbDictionary
280
     1
281
     1
  3
ACAD_XREC_ROUNDTRIP
360
4C07
  0
XRECORD
  5
4C19
102
{ACAD_REACTORS
330
4C18
102
}
330
4C18
100
AcDbXrecord
280
     1
102
DISPLAYNAME
  1
Imperial24
102
FLAGS
 90
        0
  0
XRECORD
  5
4C15
102
{ACAD_REACTORS
330
4C14
102
}
330
4C14
100
AcDbXrecord
280
     1
102
DISPLAYNAME
  1
Metric50
102
FLAGS
 90
        0
  0
XRECORD
  5
4BD7
102
{ACAD_REACTORS
330
997
102
}
330
997
100
AcDbXrecord
280
     1
102
SHADEPLOT
 70
     0
102
SHADEPLOTRESLEVEL
 70
     2
102
SHADEPLOTCUSTOMDPI
 70
   300
  0
XRECORD
  5
3E7C
102
{ACAD_REACTORS
330
997
102
}
330
997
100
AcDbXrecord
280
     1
310
280000000001000098000000010008000000000000980000010000000100000000010000000000000000000000000052FFFFFFFF000000FF000000FF000000FF000000FF000000FF000000FF000000FF000000FF330000FF660000FF990000FFCC0000FFFF0000FF003300FF333300FF663300FF993300FFCC3300FFFF3300
310
FF006600FF336600FF666600FF996600FFCC6600FFFF6600FF009900FF339900FF669900FF999900FFCC9900FFFF9900FF00CC00FF33CC00FF66CC00FF99CC00FFCCCC00FFFFCC00FF00FF00FF33FF00FF66FF00FF99FF00FFCCFF00FFFFFF00FF000033FF330033FF660033FF990033FFCC0033FFFF0033FF003333FF3333
310
33FF663333FF993333FFCC3333FFFF3333FF006633FF336633FF666633FF996633FFCC6633FFFF6633FF009933FF339933FF669933FF999933FFCC9933FFFF9933FF00CC33FF33CC33FF66CC33FF99CC33FFCCCC33FFFFCC33FF00FF33FF33FF33FF66FF33FF99FF33FFCCFF33FFFFFF33FF000066FF330066FF660066FF99
310
0066FFCC0066FFFF0066FF003366FF333366FF663366FF993366FFCC3366FFFF3366FF006666FF336666FF666666FF996666FFCC6666FFFF6666FF009966FF339966FF669966FF999966FFCC9966FFFF9966FF00CC66FF33CC66FF66CC66FF99CC66FFCCCC66FFFFCC66FF00FF66FF33FF66FF66FF66FF99FF66FFCCFF66FF
310
FFFF66FF000099FF330099FF660099FF990099FFCC0099FFFF0099FF003399FF333399FF663399FF993399FFCC3399FFFF3399FF006699FF336699FF666699FF996699FFCC6699FFFF6699FF009999FF339999FF669999FF999999FFCC9999FFFF9999FF00CC99FF33CC99FF66CC99FF99CC99FFCCCC99FFFFCC99FF00FF99
310
FF33FF99FF66FF99FF99FF99FFCCFF99FFFFFF99FF0000CCFF3300CCFF6600CCFF9900CCFFCC00CCFFFF00CCFF0033CCFF3333CCFF6633CCFF9933CCFFCC33CCFFFF33CCFF0066CCFF3366CCFF6666CCFF9966CCFFCC66CCFFFF66CCFF0099CCFF3399CCFF6699CCFF9999CCFFCC99CCFFFF99CCFF00CCCCFF33CCCCFF66CC
310
CCFF99CCCCFFCCCCCCFFFFCCCCFF00FFCCFF33FFCCFF66FFCCFF99FFCCFFCCFFCCFFFFFFCCFF0000FFFF3300FFFF6600FFFF9900FFFFCC00FFFFFF00FFFF0033FFFF3333FFFF6633FFFF9933FFFFCC33FFFFFF33FFFF0066FFFF3366FFFF6666FFFF9966FFFFCC66FFFFFF66FFFF0099FFFF3399FFFF6699FFFF9999FFFFCC
310
99FFFFFF99FFFF00CCFFFF33CCFFFF66CCFFFF99CCFFFFCCCCFFFFFFCCFFFF00FFFFFF33FFFFFF66FFFFFF99FFFFFFCCFFFFFFFFFFFFFF000000FF0D0D0DFF1A1A1AFF282828FF353535FF434343FF505050FF5D5D5DFF6B6B6BFF787878FF868686FF939393FFA1A1A1FFAEAEAEFFBBBBBBFFC9C9C9FFD6D6D6FFE4E4E4FF
310
F1F1F1FFFFFFFFFF000000FF000000FF000000FF000000FF000000FF000000FF000000FF000000FF000000FF000000FF00000000000000000000000000000000000000000000000000000000000000000000000000000000000000000000000000000000000000000000000000000000000000000000000000000000000000
310
00000000000000000000000000000000000000000000000000000000000000000000000000000000000000000000000000000000000000000000000000000000000000000000000000000000000000000000000000000000000000000000000000000000000000000000000000000000000000000000000000000000000000
310
00000000000000000000000000000000000000000000000000000000000000000000000000000000000000000000000000000000000000000000000000000000000000000000000000000000000000000000000000000000000000000000000000000000000000000000000000000000000000000000000000000000000000
310
00000000000000000000000000000000000000000000000000000000000000000000000000000000000000000000000000000000000016000000000000000000000000000000000000000000000000000000000000000000000000000000000000000000000000000000000000000000000000000000000000000000000000
310
00000000000000000000000000000000000000000000000000000000000000000000000000000000000000000000000000000000000000000000000000000000000000000000000000000000000000000000000000000000000000000000000000000000000000000000000000000000000000000000000000000000000000
310
00000000000000000000000000000000000000000000000000000000000000000000000000000000000000000000000000000000000000001600000000000000000000000000000000000000000000000000000000000000000000000000000000000000000000000000000000000000000000000000000000000000000000
310
00000000000000000000000000000000000000000000000000000000000000000000000000000000000000000000000000000000000000000000000000000000000000000000000000000000000000000000000000000000000000000000000000000000000000000000000000000000000000000000000000000000000000
310
0000000000000000000000000000000000000000000000EBEB0000000000000000161616161616161616161616161616161616161616161616161616161616161616161616161616161616161616161616161616160000000000000000EB000000000000000000000000000000000000000000000000000000000000000000
310
00000000000000000000000000000000000000000000000000000000000000000000000000000000000000000000000000000000000000000000000000000000000000000000000000000000000000000000000000000000000000000000000000000000000000000000000000000000000000000000000000000000000000
310
00000000000000000000000000000000000000000000000000EB0000000000000000001600000000160000000016000000001600000000160000000016000000001600000000160000000016000000000016000000001600000000000000EBEBEB000000000000000000000000000000000000000000000000000000000000
310
00000000000000000000000000000000000000000000000000000000000000000000000000000000000000000000000000000000000000000000000000000000000000000000000000000000000000000000000000000000000000000000000000000000000000000000000000000000000000000000000000000000000000
310
000000000000000000000000000000000000000000000000000000EB000000000000000000160000000016000000001600000000160000000016000000001600000000160000000016000000001600000000001600000000160000000000000000EB0000000000000000000000000000000000000000000000000000000000
310
00000000000000000000000000000000000000000000000000000000000000000000000000000000000000000000000000000000000000000000000000000000000000000000000000000000000000000000000000000000000000000000000000000000000000000000000000000000000000000000000000000000000000
310
00000000000000000000000000000000000000005E5E5E5E5E5E5E5E5E5E5E5E5E5E5E5E5E5E5E165E5E5E5E165E5E5E5E165E5E5E5E165E5E5E5E165E5E5E5E165E5E5E5E165E5E5E5E165E5E5E5E165E5E5E5E5E165E5E5E5E165E5E5E5E5E5E5E5E5E5EEBEBEBEBEBEBEBEB5E0000000000000000000000000000000000
310
00000000000000000000000000000000000000000000000000000000000000000000000000000000000000000000000000000000000000000000000000000000000000000000000000000000000000000000000000000000000000000000000000000000000000000000000000000000000000000000000000000000000000
310
000000000000000000000000000000000000000000005EEBEBEBEBEB00EBEBEBEBEBEBEBEBEBEBEBEBEBEBEBEBEBEBEBEBEBEBEBEBEBEBEBEBEBEBEBEBEBEBEB000016EBEBEBEBEBEBEBEBEB1600000000F500F5F5F500F5F5F500F5F50000F5F5F500F5F50000EBEBEBEBEBEBEB005E000000000000000000000000000000
310
00000000000000000000000000000000000000000000000000000000000000000000000000000000000000000000000000000000000000000000000000000000000000000000000000000000000000000000000000000000000000000000000000000000000000000000000000000000000000000000000000000000000000
310
0000000000000000000000000000000000000000000000005EEBEBEBEBEBEBEBEBEBEBEBEB00EBEBEBEBEBEBEBEBEBEBEBEBEBEBEBEBEBEBEBEBEBEBEBEBEBEBEBEB000016EBEBEBEBEBEBEBEBEB160000F5F5F500F5000000F5000000F500F500F5000000F5F5000000F5F5F5F5F5F5005E00000000000000000000000000
310
00000000000000000000000000000000000000000000000000000000000000000000000000000000000000000000000000000000000000000000000000000000000000000000000000000000000000000000000000000000000000000000000000000000000000000000000000000000000000000000000000000000000000
310
000000000000000000000000000000000000000000000000EB005EEBEBEBEB00EBEBEBEBEBEBEB00EBEBEBEBEBEBEBEBEBEBEBEBEBEBEBEBEBEBEBEBEBEBEBEBEBEBEBEB00001600EBEB000000EBEB0016000000F5F50000F5F50000F5F500F500F500F5F5F500F5F5000000F5F500F5F50000EBEB00000000000000000000
310
00000000000000000000000000000000000000000000000000000000000000000000000000000000000000000000000000000000000000000000000000000000000000000000000000000000000000000000000000000000000000000000000000000000000000000000000000000000000000000000000000000000000000
310
0000000000000000000000000000000000000000000000000000EBEB5EEBEBEBEBEBEBEBEBEBEBEBEB00EBEBEBEBEBEBEBEBEBEBEBEBEBEBEBEBEBEBEBEBEBEBEBEBEBEBEBEB00001600EBEB000000EBEB0016000000F5F500F500F500F500F500F500F500F5F5F500F5F50000F5F5F500F5000000EBEB0000000000000000
310
00000000000000000000000000000000000000000000000000000000000000000000000000000000000000000000000000000000000000000000000000000000000000000000000000000000000000000000000000000000000000000000000000000000000000000000000000000000000000000000000000000000000000
310
00000000000000000000000000000000000000000000000000000000EBEB5EEBEBEBEBEBEBEBEBEBEBEBEBEB0000000000000000000000000000000000000000000000000000000000001600EBEB000000EBEB001600000000F50000F5F50000F50000F5F50000F5F50000F5F50000F5F5F5F5F5000000EBEBEB0000000000
310
00000000000000000000000000000000000000000000000000000000000000000000000000000000000000000000000000000000000000000000000000000000000000000000000000000000000000000000000000000000000000000000000000000000000000000000000000000000000000000000000000000000000000
310
00000000000000000000000000000000000000000000000000000000000000001616161616161616161616161616161616161616161616161616161616161616161616161616161616161616161616161616161616161616161616161616161616161616161616161616161616161616161616161616161616160000000000
310
00000000000000000000000000000000000000000000000000000000000000000000000000000000000000000000000000000000000000000000000000000000000000000000000000000000000000000000000000000000000000000000000000000000000000000000000000000000000000000000000000000000000000
310
000000000000000000000000000000000000000000000000000000000000000000005E0000EBEBEBEBEB0000001600000000000000000000000000001600EBEBEBEBEB00001600002D00F5F50000160000EBEBEBEBEB0000160000F500F5F5F5F5F5F5F5F5F5F500F500F5F5F5F5F5F500000000000000000000005E000000
310
00000000000000000000000000000000000000000000000000000000000000000000000000000000000000000000000000000000000000000000000000000000000000000000000000000000000000000000000000000000000000000000000000000000000000000000000000000000000000000000000000000000000000
310
0000000000000000000000000000000000000000000000000000000000000000000000005E0000EBEBEBEBEB0000001600000000000000000000000000001600EBEBEBEBEBEB00160000002DF5F50000160000EBEBEBEBEB0000160000F5F5F5F5F5F500F500F5F5F5F5F5F5F5F5F5F5F5F5F5000000000000000000005E00
310
00000000000000000000000000000000000000000000000000000000000000000000000000000000000000000000000000000000000000000000000000000000000000000000000000000000000000000000000000000000000000000000000000000000000000000000000000000000000000000000000000000000000000
310
0000000000000000000000000000000000000000000000000000000000000000000000161616160000EBEB0000EBEB00001616161616161616161616161616161600EBEB0000EBEB00160000F5F5F5F5000016000000000000000000160000F5F5F5F5F5F500F500F5F5F5F5F5F5F5F5F5F5F5F5F500000000000000000000
310
16161600000000000000000000000000000000000000000000000000000000000000000000000000000000000000000000000000000000000000000000000000000000000000000000000000000000000000000000000000000000000000000000000000000000000000000000000000000000000000000000000000000000
310
000000000000000000000000000000000000000000000000000000000000000000000000000000005E00EBEBEB0000EBEB0000160000F5F5F5F5F5F5F5F500F5F5F51600EBEB0000EBEB0016000000F5002D00001600EBEB000000EBEB00160000F5F5F5F5F5F5F5F5F5F5F5F5F5F5F5F5F5F500F5F5000000000000000000
310
00005E00000000000000000000000000000000000000000000000000000000000000000000000000000000000000000000000000000000000000000000000000000000000000000000000000000000000000000000000000000000000000000000000000000000000000000000000000000000000000000000000000000000
310
0000000000000000000000000000000000000000000000000000000000000000000000000000000000005E00EBEB000000EBEB000016F500F5F5F500F5F5F50000F5F5F51600EBEB0000EBEB00160000F5F500002D001600EBEB000000EBEB0016000000000000000000000000000000000000000000000000000000000000
310
000000005E0000000000000000000000000000000000000000000000000000000000000000000000000000000000000000000000000000000000000000000000000000000000000000000000000000000000000000000000000000000000000000000000000000000000000000000000000000000000000000000000000000
310
000000000000000000000000000000000000000000000000000000000000000000000000000000000000000016161616161616161616161616161616161616161616161616161616161616161616161616161616161616161616EBEBEBEBEBEBEBEB1616161616161616161616161616161616161616161616161616161616
310
16161616161616000000000000000000000000000000000000000000000000000000000000000000000000000000000000000000000000000000000000000000000000000000000000000000000000000000000000000000000000000000000000000000000000000000000000000000000000000000000000000000000000
310
000000000000000000000000000000000000000000000000000000000000000000000000000000000000000000005E000000EBEBEBEBEBEBEBEBEB000000EBEBEBEBEBEBEBEBEBEBEBEB00EBEBEBEBEBEBEBEBEBEBEBEB0000001600EBEBEBEBEBEBEB00160000F5F5F5F5F5F5F5F500F5F5F5F50000000000000000000000
310
00000000000000005E00000000000000000000000000000000000000000000000000000000000000000000000000000000000000000000000000000000000000000000000000000000000000000000000000000000000000000000000000000000000000000000000000000000000000000000000000000000000000000000
310
0000000000000000000000000000000000000000000000000000000000000000000000000000000000000000000000005E000000EBEBEBEBEBEBEBEBEB0000EBEBEBEBEBEBEB00EBEBEBEBEB00EBEBEBEBEBEBEBEBEBEBEB000000001600EBEBEB0000EBEB00160000F5F5F5F5F5F500F500F5F5F500000000000000000000
310
000000000000000000005E0000000000000000000000000000000000000000000000000000000000000000000000000000000000000000000000000000000000000000000000000000000000000000000000000000000000000000000000000000000000000000000000000000000000000000000000000000000000000000
310
00000000000000000000000000000000000000000000000000000000000000000000000000000000000000000000000000005E5E5E5E5E5E5E5E5E5E5E5E5E5E5E5E5E5E5E5E5E5E5E5E5E5E5E5E5E5E5E5E5E5E5E5E5E5E5E5E5E5E5E5E165E5EEB5E5E5EEBEB5E165E5E5E5E5E5E5E5E5E5E5E5E5E5E5E5E5E5E5E5E5E5E
310
5E5E5E5E5E5E5E5E5E5E5E5E5E000000000000000000000000000000000000000000000000000000000000000000000000000000000000000000000000000000000000000000000000000000000000000000000000000000000000000000000000000000000000000000000000000000000000000000000000000000000000
310
000000000000000000000000000000000000000000000000000000000000000000000000000000000000000000000000000000005E0000000000000000000000000000000000000000000000000000000000000000000000000000000000000000000000000000000000000000000000000000000000000000000000000000
310
00000000000000000000000000005E00000000000000000000000000000000000000000000000000000000000000000000000000000000000000000000000000000000000000000000000000000000000000000000000000000000000000000000000000000000000000000000000000000000000000000000000000000000
310
0000000000000000000000000000000000000000000000000000000000000000000000000000000000000000000000000000000000005E000000000000000000000000000000000000000000000000000000000000000000000000000000000000000000000000000000000000000000000000000000000000000000000000
310
000000000000000000000000000000005E0000000000000000000000000000000000000000000000000000000000000000000000000000000000000000000000000000000000000000000000000000000000000000000000000000000000000000000000000000000000000000000000000000000000000000000000000000
310
00000000000000000000000000000000000000000000000000000000000000000000000000000000000000000000000000000000000000005E00000000000000000000000000000000000000000000000000000000000000000000000000000000000000000000000000000000000000000000000000000000000000000000
310
0000000000000000000000000000000000005E000000000000000000000000000000000000000000000000000000000000000000000000000000000000000000000000000000000000000000000000000000000000000000000000000000000000000000000000000000000000000000000000000000000000000000000000
310
000000000000000000000000000000000000000000000000000000000000000000000000000000000000000000000000000000000000000000005E0000000000000000000000000000000000000000000000000000000000000000000000000000000000000000000000000000000000000000000000000000000000000000
310
00000000000000000000000000000000000000005E00000000000000000000000000000000000000000000000000000000000000000000000000000000000000000000000000000000000000000000000000000000000000000000000000000000000000000000000000000000000000000000000000000000000000000000
310
0000000000000000000000000000000000000000000000000000000000000000000000000000000000000000000000000000000000000000000000005E000000000000000000000000000000000000000000000000000000000000000000000000000000000000000000000000000000000000000000000000000000000000
310
000000000000000000000000000000000000000000005E0000000000000000000000000000000000000000000000000000000000000000000000000000000000000000000000000000000000000000000000000000000000000000000000000000000000000000000000000000000000000000000000000000000000000000
310
00000000000000000000000000000000000000000000000000000000000000000000000000000000000000000000000000000000000000000000000000005E00000000000000000000000000000000000000000000000000000000000000000000000000000000000000000000000000000000000000000000000000000000
310
0000000000000000000000000000000000000000000000005E000000000000000000000000000000000000000000000000000000000000000000000000000000000000000000000000000000000000000000000000000000000000000000000000000000000000000000000000000000000000000000000000000000000000
310
000000000000000000000000000000000000000000000000000000000000000000000000000000000000000000000000000000000000000000000000000000005E0000000000000000000000000000000000000000000000000000000000000000000000000000000000000000000000000000000000000000000000000000
310
00000000000000000000000000000000000000000000000000005E00000000000000000000000000000000000000000000000000000000000000000000000000000000000000000000000000000000000000000000000000000000000000000000000000000000000000000000000000000000000000000000000000000000
310
00000000000000000000000000000000000000000000000000000000000000000000000000000000000000000000000000000000000000000000000000000000EBEB5E000000000000000000000000000000000000000000000000000000000000000000000000000000000000000000000000000000000000000000000000
310
00000000000000000000000000000000000000000000000000000000EBEBEB000000000000000000000000000000000000000000000000000000000000000000000000000000000000000000000000000000000000000000000000000000000000000000000000000000000000000000000000000000000000000000000000
310
000000000000000000000000000000000000000000000000000000000000000000000000000000000000000000000000000000000000000000000000000000000000EBEB5E00000000000000000000000000000000000000000000000000000000282828282828282828282828282828282828282828282828282828282828
310
280000000000000000000000000000000000000000000000000000000000EBEBEB00000000000000000000000000000000000000000000000000000000000000000000000000000000000000000000000000000000000000000000000000000000000000000000000000000000000000000000000000000000000000000000
310
0000000000000000000000000000000000000000000000000000000000000000000000000000000000000000000000000000000000000000000000000000000000000000EBEB5E0000000000000000000000000000000000000000000000000000000028F5F5F5F5F5F5F5F528F5F5F5F5000000000000002800F5F5F50000
310
F500280000000000000000000000000000000000000000000000000000000000EBEBEB0000000000000000000000000000000000000000000000000000000000000000000000000000000000000000000000000000000000000000000000000000000000000000000000000000000000000000000000000000000000000000
310
0000000000000000000000000000000000000000000000000000000000000000000000000000000000000000000000000000000000000000000000000000000000000000000000005E0000000000000000000000000000000000000000000000000000000028F5F5F5F5F5F500F528F5F5F5F5000000000000002800F5F5F5
310
F5F5F5002800000000000000000000000000000000000000000000000000000000005E0000000000000000000000000000000000000000000000000000000000000000000000000000000000000000000000000000000000000000000000000000000000000000000000000000000000000000000000000000000000000000
310
00000000000000000000000000000000000000000000000000000000000000000000000000000000000000000000000000000000000000000000000000000000000000000000000000005E00000000000000000000000000000000000000000000000000000000282828282828282828282828282828282828282828282828
310
2828282828282800000000000000000000000000000000000000000000000000000000005E000000000000000000000000000000000000000000000000000000000000000000000000000000000000000000000000000000000000000000000000000000000000000000000000000000000000000000000000000000000000
310
000000000000000000000000000000000000000000000000000000000000000000000000000000000000000000000000000000000000000000000000000000000000000000000000000000005E0000000000000000000000000000000000000000000000000000000028F5F5F5F5F5F5F5F528F5F5F5F5F500000000000028
310
0000F5F5F5F500002800000000000000000000000000000000000000000000000000000000005E00000000000000000000000000000000000000000000000000000000000000000000000000000000000000000000000000000000000000000000000000000000000000000000000000000000000000000000000000000000
310
0000000000000000000000000000000000000000000000000000000000000000000000000000000000000000000000000000000000000000000000000000000000000000000000000000000000005E0000000000000000000000000000000000000000000000000000000028F5F5F5F5F500F5F528F5F5F5F5F50000000000
310
00280000F5F5F5F500002800000000000000000000000000000000000000000000000000000000005E0000000000000000000000000000000000000000000000000000000000000000000000000000000000000000000000000000000000000000000000000000000000000000000000000000000000000000000000000000
310
00000000000000000000000000000000000000000000000000000000000000000000000000000000000000000000000000000000000000000000000000000000000000000000000000000000000000005E00000000000000000000000000000000000000000000000000000000282828282828282828282828282828282828
310
2828282828282828282828282800000000000000000000000000000000000000000000000000000000005E000000000000000000000000000000000000000000000000000000000000000000000000000000000000000000000000000000000000000000000000000000000000000000000000000000000000000000000000
310
000000000000000000000000000000000000000000000000000000000000000000000000000000000000000000000000000000000000000000000000000000000000000000000000000000000000000000005E0000000000000000000000000000000000000000000000000000000028F5F5F5F5F5F5F5F528F5F5F5F50000
310
0000000000280000F5F5F5F500002800000000000000000000000000000000000000000000000000000000005E00000000000000000000000000000000000000000000000000000000000000000000000000000000000000000000000000000000000000000000000000000000000000000000000000000000000000000000
310
0000000000000000000000000000000000000000000000000000000000000000000000000000000000000000000000000000000000000000000000000000000000000000000000000000000000000000000000005E0000000000000000000000000000000000000000000000000000000028F5F5F5F5F5F500F52800F5F5F5
310
00000000000000280000F5F5F5F500002800000000000000000000000000000000000000000000000000000000005E0000000000000000000000000000000000000000000000000000000000000000000000000000000000000000000000000000000000000000000000000000000000000000000000000000000000000000
310
00000000000000000000000000000000000000000000000000000000000000000000000000000000000000000000000000000000000000000000000000000000000000000000000000000000000000000000000000005E00000000000000000000000000000000000000000000000000000000282828282828282828282828
310
2828282828282828282828282828282828282800000000000000000000000000000000000000000000000000000000005E000000000000000000000000000000000000000000000000000000000000000000000000000000000000000000000000000000000000000000000000000000000000000000000000000000000000
310
000000000000000000000000000000000000000000000000000000000000000000000000000000000000000000000000000000000000000000000000000000000000000000000000000000000000000000000000000000005E0000000000000000000000000000000000000000000000000000000028F5F5F5F5F5F5F5F528
310
F5F5F5F5000000000000002800F5F5F50000F5002800000000000000000000000000000000000000000000000000000000005E00000000000000000000000000000000000000000000000000000000000000000000000000000000000000000000000000000000000000000000000000000000000000000000000000000000
310
0000000000000000000000000000000000000000000000000000000000000000000000000000000000000000000000000000000000000000000000000000000000000000000000000000000000000000000000000000000000005E0000000000000000000000000000000000000000000000000000000028F5F5F5F5F5F5F5
310
F52800F5F5F5000000000000002800F5F5F5F5F5F5002800000000000000000000000000000000000000000000000000000000005E0000000000000000000000000000000000000000000000000000000000000000000000000000000000000000000000000000000000000000000000000000000000000000000000000000
310
00000000000000000000000000000000000000000000000000000000000000000000000000000000000000000000000000000000000000000000000000000000000000000000000000000000000000000000000000000000000000005E00000000000000000000000000000000000000000000000000000000282828282828
310
2828282828282828282828282828282828282828282828282800000000000000000000000000000000000000000000000000000000005E000000000000000000000000000000000000000000000000000000000000000000000000000000000000000000000000000000000000000000000000000000000000000000000000
310
000000000000000000000000000000000000000000000000000000000000000000000000000000000000000000000000000000000000000000000000000000000000000000000000000000000000000000000000000000000000000000005E0000000000000000000000000000000000000000000000000000000028F5F5F5
310
F5F5F5F5F528F5F5F5F500000000000000280000F5F5F5F500002800000000000000000000000000000000000000000000000000000000005E00000000000000000000000000000000000000000000000000000000000000000000000000000000000000000000000000000000000000000000000000000000000000000000
310
0000000000000000000000000000000000000000000000000000000000000000000000000000000000000000000000000000000000000000000000000000000000000000000000000000000000000000000000000000000000000000000000005E0000000000000000000000000000000000000000000000000000000028F5
310
F5F5F5F5F5F5F528F5F5F5F500000000000000280000F5F5F5F500002800000000000000000000000000000000000000000000000000000000005E0000000000000000000000000000000000000000000000000000000000000000000000000000000000000000000000000000000000000000000000000000000000000000
310
00000000000000000000000000000000000000000000000000000000000000000000000000000000000000000000000000000000000000000000000000000000000000000000000000000000000000000000000000000000000000000000001616161600000000000000000000000000000000000000000000000000000000
310
28282828282828282828282828282828282828282828282828282828282828000000000000000000000000000000000000000000000000000000000016161600000000000000000000000000000000000000000000000000000000000000000000000000000000000000000000000000000000000000000000000000000000
310
000000000000000000000000000000000000000000000000000000000000000000000000000000000000000000000000000000000000000000000000000000000000000000000000000000000000000000000000000000000000000000000000000000005E0000000000000000000000000000000000000000000000000000
310
000028F5F5F5F5F5F5F5F528F5F5F5F500000000000000280000F5F5F500F5F52800000000000000000000000000000000000000000000000000000000005E00000000000000000000000000000000000000000000000000000000000000000000000000000000000000000000000000000000000000000000000000000000
310
0000000000000000000000000000000000000000000000000000000000000000000000000000000000000000000000000000000000000000000000000000000000000000000000000000000000000000000000000000000000000000000000000000000000005E000000000000000000000000000000000000000000000000
310
0000000028F5F5F5F5F5F5F5F528F5F5F5F500000000000000280000F5F5F5F5F5F52800000000000000000000000000000000000000000000000000000000005E0000000000000000000000000000000000000000000000000000000000000000000000000000000000000000000000000000000000000000000000000000
310
00000000000000000000000000000000000000000000000000000000000000000000000000000000000000000000000000000000000000000000000000000000000000000000000000000000000000000000000000000000000000000000000000000000000000005E00000000000000000000000000000000000000000000
310
0000000000002828282828282828282828282828282828282828282828282828282828282800000000000000000000000000000000000000000000000000000000005E000000000000000000000000000000000000000000000000000000000000000000000000000000000000000000000000000000000000000000000000
310
000000000000000000000000000000000000000000000000000000000000000000000000000000000000000000000000000000000000000000000000000000000000000000000000000000000000000000000000000000000000000000000000000000000000000000005E0000000000000000000000000000000000000000
310
000000000000000028F5F5F5F5F5F5F5F528F5F5F5F500000000000000280000F5F5F5F500002800000000000000000000000000000000000000000000000000000000005E00000000000000000000000000000000000000000000000000000000000000000000000000000000000000000000000000000000000000000000
310
0000000000000000000000000000000000000000000000000000000000000000000000000000000000000000000000000000000000000000000000000000000000000000000000000000000000000000000000000000000000000000000000000000000000000000000000005E000000000000000000000000000000000000
310
0000000000000000000028F5F5F5F5F5F5F5F528F5F5F5F500000000000000280000F5F5F5F500002800000000000000000000000000000000000000000000000000000000005E0000000000000000000000000000000000000000000000000000000000000000000000000000000000000000000000000000000000000000
310
00000000000000000000000000000000000000000000000000000000000000000000000000000000000000000000000000000000000000000000000000000000000000000000000000000000000000000000000000000000000000000000000000000000000000000000000000005E00000000000000000000000000000000
310
0000000000000000000000002828282828282828282828282828282828282828282828282828282828282800000000000000000000000000000000000000000000000000000000005E000000000000000000000000000000000000000000000000000000000000000000000000000000000000000000000000000000000000
310
000000000000000000000000000000000000000000000000000000000000000000000000000000000000000000000000000000000000000000000000000000000000000000000000000000000000000000000000000000000000000000000000000000000000000000000000000000005E0000000000000000000000000000
310
000000000000000000000000000028F5F5F5F5F5F5F5F528F5F5F5F500000000000000280000F5F5F5F500002800000000000000000000000000000000000000000000000000000000005E00000000000000000000000000000000000000000000000000000000000000000000000000000000000000000000000000000000
310
0000000000000000000000000000000000000000000000000000000000000000000000000000000000000000000000000000000000000000000000000000000000000000000000000000000000000000000000000000000000000000000000000000000000000000000000000000000000005E000000000000000000000000
310
0000000000000000000000000000000028F5F5F5F5F5F5F5F528F5F5F5F500000000000000280000F5F5F5F500002800000000000000000000000000000000000000000000000000000000005E0000000000000000000000000000000000000000000000000000000000000000000000000000000000000000000000000000
310
00000000000000000000000000000000000000000000000000000000000000000000000000000000000000000000000000000000000000000000000000000000000000000000000000000000000000000000000000000000000000000000000000000000000000000000000000000000000000005E00000000000000000000
310
0000000000000000000000000000000000002828282828282828282828282828282828282828282828282828282828282800000000000000000000000000000000000000000000000000000000005E000000000000000000000000000000000000000000000000000000000000000000000000000000000000000000000000
310
000000000000000000000000000000000000000000000000000000000000000000000000000000000000000000000000000000000000000000000000000000000000000000000000000000000000000000000000000000000000000000000000000000000000000000000000000000000000000000005E0000000000000000
310
000000000000000000000000000000000000000028F5F5F5F5F5F5F5F528F5F5F5F5000000000000002800F500F50000F5002800000000000000000000000000000000000000000000000000000000005E00000000000000000000000000000000000000000000000000000000000000000000000000000000000000000000
310
0000000000000000000000000000000000000000000000000000000000000000000000000000000000000000000000000000000000000000000000000000000000000000000000000000000000000000000000000000000000000000000000000000000000000000000000000000000000000000000000005E000000000000
310
0000000000000000000000000000000000000000000028F5F5F5F5F5F5F5F528F5F5F5F5000000000000002800F5F5F5F5F5F5002800000000000000000000000000000000000000000000000000000000005E0000000000000000000000000000000000000000000000000000000000000000000000000000000000000000
310
00000000000000000000000000000000000000000000000000000000000000000000000000000000000000000000000000000000000000000000000000000000000000000000000000000000000000000000000000000000000000000000000000000000000000000000000000000000000000000000000000005E00000000
310
0000000000000000000000000000000000000000000000002828282828282828282828282828282828282828282828282828282828282800000000000000000000000000000000000000000000000000000000005E000000000000000000000000000000000000000000000000000000000000000000000000000000000000
310
000000000000000000000000000000000000000000000000000000000000000000000000000000000000000000000000000000000000000000000000000000000000000000000000000000000000000000000000000000000000000000000000000000000000000000000000000000000000000000000000000000005E0000
310
000000000000000000000000000000000000000000000000000028F5F5F5F5F5F5F5F528F5F5F5F5F5F5F5000000002800F500F50000F5002800000000000000000000000000000000000000000000000000000000005E00000000000000000000000000000000000000000000000000000000000000000000000000000000
310
0000000000000000000000000000000000000000000000000000000000000000000000000000000000000000000000000000000000000000000000000000000000000000000000000000000000000000000000000000000000000000000000000000000000000000000000000000000000000000000000000000000000005E
310
0000000000000000000000000000000000000000000000000000000028F5F5F5F5F5F5F5F528F5F5F5F5F5F500000000002800F5F5F5F5F5F5002800000000000000000000000000000000000000000000000000000000005E0000000000000000000000000000000000000000000000000000000000000000000000000000
310
000000000000000000000000000000000000000000000000000000000000000000000000000000000000000000000000000000000000000000000000000000000000000000000000000000000000000000000000000000000000000000000000000000000000000000000000000000000000000000000000000000000000EB
310
EB5E00000000000000000000000000000000000000000000000000000000282828282828282828282828282828282828282828282828282828282828280000000000000000000000000000000000000000000000000000000000EBEBEB00000000000000000000000000000000000000000000000000000000000000000000
310
00000000000000000000000000000000000000000000000000000000000000000000000000000000000000000000000000000000000000000000000000000000000000000000000000000000000000000000000000000000000000000000000000000000000000000000000000000000000000000000000000000000000000
310
00EBEB5E0000000000000000000000000000000000000000000000000000000028F5F5F5F5F5F5F5F528F5F5F5F5F5F5F5F5F50000280000F5F5F5F50000280000000000000000000000000000000000000000000000000000000000EBEBEB0000000000000000000000000000000000000000000000000000000000000000
310
00000000000000000000000000000000000000000000000000000000000000000000000000000000000000000000000000000000000000000000000000000000000000000000000000000000000000000000000000000000000000000000000000000000000000000000000000000000000000000000000000000000000000
310
00000000005E0000000000000000000000000000000000000000000000000000000028F5F5F5F5F5F5F5F528F5F5F5F5F5F5F5F5F5F5F5280000F5F5F5F500002800000000000000000000000000000000000000000000000000000000005E0000000000000000000000000000000000000000000000000000000000000000
310
00000000000000000000000000000000000000000000000000000000000000000000000000000000000000000000000000000000000000000000000000000000000000000000000000000000000000000000000000000000000000000000000000000000000000000000000000000000000000000000000000000000000000
310
000000000000005E000000000000000000000000000000000000000000000000000000002828282828282828282828282828282828282828282828282828282828282800000000000000000000000000000000000000000000000000000000005E000000000000000000000000000000000000000000000000000000000000
310
00000000000000000000000000000000000000000000000000000000000000000000000000000000000000000000000000000000000000000000000000000000000000000000000000000000000000000000000000000000000000000000000000000000000000000000000000000000000000000000000000000000000000
310
0000000000000000005E0000000000000000000000000000000000000000000000000000000028F5F5F5F5F5F5F5F528F5F500F5F5F5F5F5F50000280000F5F5F5F500002800000000000000000000000000000000000000000000000000000000005E00000000000000000000000000000000000000000000000000000000
310
00000000000000000000000000000000000000000000000000000000000000000000000000000000000000000000000000000000000000000000000000000000000000000000000000000000000000000000000000000000000000000000000000000000000000000000000000000000000000000000000000000000000000
310
00000000000000000000005E0000000000000000000000000000000000000000000000000000000028F5F5F5F5F5F5F5F528F5F5F5F5F5F5F5F5F5F5F5280000F5F5F5F500002800000000000000000000000000000000000000000000000000000000005E0000000000000000000000000000000000000000000000000000
310
00000000000000000000000000000000000000000000000000000000000000000000000000000000000000000000000000000000000000000000000000000000000000000000000000000000000000000000000000000000000000000000000000000000000000000000000000000000000000000000000000000000000000
310
000000000000000000000000005E000000000000000000000000000000000000000000000000000000002828282828282828282828282828282828282828282828282828282828282800000000000000000000000000000000000000000000000000000000005E000000000000000000000000000000000000000000000000
310
00000000000000000000000000000000000000000000000000000000000000000000000000000000000000000000000000000000000000000000000000000000000000000000000000000000000000000000000000000000000000000000000000000000000000000000000000000000000000000000000000000000000000
310
0000000000000000000000000000005E0000000000000000000000000000000000000000000000000000000028F5F5F5F5F5F5F5F528F5F5F5F5F50000000000002800F500F50000F5002800000000000000000000000000000000000000000000000000000000005E00000000000000000000000000000000000000000000
310
00000000000000000000000000000000000000000000000000000000000000000000000000000000000000000000000000000000000000000000000000000000000000000000000000000000000000000000000000000000000000000000000000000000000000000000000000000000000000000000000000000000000000
310
00000000000000000000000000000000005E0000000000000000000000000000000000000000000000000000000028F5F5F5F5F5F5F5F528F5F5F5F5F50000000000002800F5F5F5F5F5F5002800000000000000000000000000000000000000000000000000000000005E0000000000000000000000000000000000000000
310
00000000000000000000000000000000000000000000000000000000000000000000000000000000000000000000000000000000000000000000000000000000000000000000000000000000000000000000000000000000000000000000000000000000000000000000000000000000000000000000000000000000000000
310
000000000000000000000000000000000000005E000000000000000000000000000000000000000000000000000000002828282828282828282828282828282828282828282828282828282828282800000000000000000000000000000000000000000000000000000000005E000000000000000000000000000000000000
310
00000000000000000000000000000000000000000000000000000000000000000000000000000000000000000000000000000000000000000000000000000000000000000000000000000000000000000000000000000000000000000000000000000000000000000000000000000000000000000000000000000000000000
310
0000000000000000000000000000000000000000005E0000000000000000000000000000000000000000000000000000000028F5F5F5F5F5F5F5F528F5F5F5F5F5000000000000280000F5F5F5F500002800000000000000000000000000000000000000000000000000000000005E00000000000000000000000000000000
310
00000000000000000000000000000000000000000000000000000000000000000000000000000000000000000000000000000000000000000000000000000000000000000000000000000000000000000000000000000000000000000000000000000000000000000000000000000000000000000000000000000000000000
310
00000000000000000000000000000000000000000000005E0000000000000000000000000000000000000000000000000000000028F5F5F5F5F5F5F5F528F5F5F5F5F5000000000000280000F5F5F5F500002800000000000000000000000000000000000000000000000000000000005E0000000000000000000000000000
310
00000000000000000000000000000000000000000000000000000000000000000000000000000000000000000000000000000000000000000000000000000000000000000000000000000000000000000000000000000000000000000000000000000000000000000000000000000000000000000000000000000000000000
310
000000000000000000000000000000000000000000000000005E000000000000000000000000000000000000000000000000000000002828282828282828282828282828282828282828282828282828282828282800000000000000000000000000000000000000000000000000000000005E000000000000000000000000
310
00000000000000000000000000000000000000000000000000000000000000000000000000000000000000000000000000000000000000000000000000000000000000000000000000000000000000000000000000000000000000000000000000000000000000000000000000000000000000000000000000000000000000
310
0000000000000000000000000000000000000000000000000000005E0000000000000000000000000000000000000000000000000000000028F5F5F5F5F5F5F5F528F5F5F5F5F5F500000000002800F500F50000F5002800000000000000000000000000000000000000000000000000000000005E00000000000000000000
310
00000000000000000000000000000000000000000000000000000000000000000000000000000000000000000000000000000000000000000000000000000000000000000000000000000000000000000000000000000000000000000000000000000000000000000000000000000000000000000000000000000000000000
310
00000000000000000000000000000000000000000000000000000000005E0000000000000000000000000000000000000000000000000000000028F5F5F5F5F5F5F5F528F5F5F5F5F5F5F5000000002800F5F5F5F5F5F5002800000000000000000000000000000000000000000000000000000000005E0000000000000000
310
00000000000000000000000000000000000000000000000000000000000000000000000000000000000000000000000000000000000000000000000000000000000000000000000000000000000000000000000000000000000000000000000000000000000000000000000000000000000000000000000000000000000000
310
000000000000000000000000000000000000000000000000000000000000005E0000000000000000000000000000000000000000000000000000000028F5F5F5F5F5F5F5F528F5F5F5F5F5F5F500000000280000F5F50000F5002800000000000000000000000000000000000000000000000000000000005E000000000000
310
00000000000000000000000000000000000000000000000000000000000000000000000000000000000000000000000000000000000000000000000000000000000000000000000000000000000000000000000000000000000000000000000000000000000000000000000000000000000000000000000000000000000000
310
0000000000000000000000000000000000000000161616161616161616161616161600000000000000000000000000000000000000000000000000000000282828282828282828282828282828EB28282828282828282828282828282800000000000000000000000000000000000000000000000000000000001616161616
310
16000000000000000000000000000000000000000000000000000000000000000000000000000000000000000000000000000000000000000000000000000000000000000000000000000000000000000000000000000000000000000000000000000000000000000000000000000000000000000000000000000000000000
310
00000000000000000000000000000000000000000000000000000000000000000000005E0000000000000000000000000000000000000000000000000000000028F5F5F5F5F5F500F528F5F5F5F5000000000000002800F5F5F5F5F5F5002800000000000000000000000000000000000000000000000000000000005E0000
310
00000000000000000000000000000000000000000000000000000000000000000000000000000000000000000000000000000000000000000000000000000000000000000000000000000000000000000000000000000000000000000000000000000000000000000000000000000000000000000000000000000000000000
310
000000000000000000000000000000000000000000000000000000000000000000000000005E0000000000000000000000000000000000000000000000000000000028F5F5F5F5F5F500F52800F5F5F500000000000000280000F5F50000F5002800000000000000000000000000000000000000000000000000000000005E
310
00000000000000000000000000000000000000000000000000000000000000000000000000000000000000000000000000000000000000000000000000000000000000000000000000000000000000000000000000000000000000000000000000000000000000000000000000000000000000000000000000000000000000
310
0000000000000000000000000000000000000000000000000000000000000000000000000000005E000000000000000000000000000000000000000000000000000000002828282828282828282828282828282828282828282828282828282828282800000000000000000000000000000000000000000000000000000000
310
005E0000000000000000000000000000000000000000000000000000000000000000000000000000000000000000000000000000000000000000000000000000000000000000000000000000000000000000000000000000000000000000000000000000000000000000000000000000000000000000000000000000000000
310
00000000000000000000000000000000000000000000000000000000000000000000000000000000005E0000000000000000000000000000000000000000000000000000000028F5F5F5F5F5F5F5F52800000000F5F5F500000000280000F5F5F5F50000280000000000000000000000000000000000000000000000000000
310
0000005E000000000000000000000000000000000000000000000000000000000000000000000000000000000000000000000000000000000000000000000000000000000000000000000000000000000000000000000000000000000000000000000000000000000000000000000000000000000000000000000000000000
310
000000000000000000000000000000000000000000000000000000000000000000000000000000000000005E0000000000000000000000000000000000000000000000000000000028F5F5F5F5F5F5F5F52800000000F5F5F50000000028000000F5F5F5000028000000000000000000000000000000000000000000000000
310
00000000005E00000000000000000000000000000000000000000000000000000000000000000000000000000000000000000000000000000000000000000000000000000000000000000000000000000000000000000000000000000000000000000000000000000000000000000000000000000000000000000000000000
310
0000000000000000000000000000000000000000000000000000000000000000000000000000000000000000005E000000000000000000000000000000000000000000000000000000002828282828282828282828282828282828282828282828282828282828282800000000000000000000000000000000000000000000
310
000000000000005E0000000000000000000000000000000000000000000000000000000000000000000000000000000000000000000000000000000000000000000000000000000000000000000000000000000000000000000000000000000000000000000000000000000000000000000000000000000000000000000000
310
00000000000000000000000000000000000000000000000000000000000000000000000000000000000000000000005E0000000000000000000000000000000000000000000000000000000000F5F5F5F500000000000000000000000000000000000000000000000000000000000000000000000000000000000000000000
310
0000000000000000005E000000000000000000000000000000000000000000000000000000000000000000000000000000000000000000000000000000000000000000000000000000000000000000000000000000000000000000000000000000000000000000000000000000000000000000000000000000000000000000
310
000000000000000000000000000000000000000000000000000000000000000000000000000000000000000000000000005E0000000000000000000000000000000000000000000000000000000000F5F5F5000000000000000000000000000000000000000000000000000000000000000000000000000000000000000000
310
00000000000000000000005E00000000000000000000000000000000000000000000000000000000000000000000000000000000000000000000000000000000000000000000000000000000000000000000000000000000000000000000000000000000000000000000000000000000000000000000000000000000000000
310
0000000000000000000000000000000000000000000000000000000000000000000000000000000000000000000000000000005E000000000000000000000000000000000000000000000000000000000000000000000000000000000000000000000000000000000000000000000000000000000000000000000000000000
310
000000000000000000000000005E0000000000000000000000000000000000000000000000000000000000000000000000000000000000000000000000000000000000000000000000000000000000000000000000000000000000000000000000000000000000000000000000000000000000000000000000000000000000
310
00000000000000000000000000000000000000000000000000000000000000000000000000000000000000000000000000000000005E00000000000000000000000000000000000000000000000000000000000000000000000000000000000000000000000000000000000000000000000000000000000000000000000000
310
0000000000000000000000000000005E000000000000000000000000000000000000000000000000000000000000000000000000000000000000000000000000000000000000000000000000000000000000000000000000000000000000000000000000000000000000000000000000000000000000000000000000000000
310
000000000000000000000000000000000000000000000000000000000000000000000000000000000000000000000000000000000000005E0000000000000000000000000000000000000000000000000000000000000000000000000000000000000000000000000000000000000000000000000000000000000000000000
310
00000000000000000000000000000000005E00000000000000000000000000000000000000000000000000000000000000000000000000000000000000000000000000000000000000000000000000000000000000000000000000000000000000000000000000000000000000000000000000000000000000000000000000
310
0000000000000000000000000000000000000000000000000000000000000000000000000000000000000000000000000000000000000000005E0000000000000000000000000000000000000000000000000000000000000000000000000000000000000000000000000000000000000000000000000000002D0000000000
310
000000002D2D000000000000000000000000005E0000000000000000000000000000000000000000000000000000000000000000000000000000000000000000000000000000000000000000000000000000000000000000000000000000000000000000000000000000000000000000000000000000000000000000000000
310
00000000000000000000000000000000000000000000000000000000000000000000000000000000000000000000000000000000000000000000005E0000000000000000000000000000000000000000000000000000000000000000000000000000000000000000000000000000000000000000000000000000002D2D2DF5
310
F5F5F5F5F52D2D2D000000000000000000000000005E000000000000000000000000000000000000000000000000000000000000000000000000000000000000000000000000000000000000000000000000000000000000000000000000000000000000000000000000000000000000000000000000000000000000000000
310
0000000000000000000000000000000000000000000000000000000000000000000000000000000000000000000000000000000000000000000000EBEB5E0000000000000000000000000000000000000000000000000000000000000000000000000000000000000000000000000000000000000000000000000000002D00
310
00F5F5F5F5F5F500002D00000000000000000000000000EBEBEB0000000000000000000000000000000000000000000000000000000000000000000000000000000000000000000000000000000000000000000000000000000000000000000000000000000000000000000000000000000000000000000000000000000000
310
00000000000000000000000000000000000000000000000000000000000000000000000000000000000000000000000000000000000000000000000000EBEB5E000000000000000000000000000000000000000000000000000000000000000000000000000000000000000000000000000000000000000000000000000000
310
2D000000000000000000002D00000000000000000000000000EBEBEB000000000000000000000000000000000000000000000000000000000000000000000000000000000000000000000000000000000000000000000000000000000000000000000000000000000000000000000000000000000000000000000000000000
310
000000000000000000000000000000000000000000000000000000000000000000000000000000000000000000000000000000000000000000000000000000EBEB5E00000000000000000000000000000000000000000000000000000000000000000000000000000000000000000000000000000000000000000000000000
310
00002D000000000000000000002D000000000000000000000000005EEBEB00000000000000000000000000000000000000000000000000000000000000000000000000000000000000000000000000000000000000000000000000000000000000000000000000000000000000000000000000000000000000000000000000
310
000000000000000000000000000000000000000000000000000000000000000000000000000000000000000000000000000000000000000000000000000000000000005E0000000000000000000000000000000000000000000000000000000000000000000000000000000000000000000000000000000000000000000000
310
000000002D000000000000000000002D000000000000000000000000005E00000000000000000000000000000000000000000000000000000000000000000000000000000000000000000000000000000000000000000000000000000000000000000000000000000000000000000000000000000000000000000000000000
310
0000000000000000000000000000000000000000000000000000000000000000000000000000000000000000000000000000000000000000000000000000000000000000005E000000000000000000000000000000000000000000000000000000000000000000000000000000000000000000000000000000000000000000
310
0000000000002D000000000000000000002D000000000000000000000000005E0000000000000000000000000000000000000000000000000000000000000000000000000000000000000000000000000000000000000000000000000000000000000000000000000000000000000000000000000000000000000000000000
310
00000000000000000000000000000000000000000000000000000000000000000000000000000000000000000000000000000000000000000000000000000000000000000000005E00000000000000000000000000000000000000000000000028000000000000000000000000000000000000000000000000000000000000
310
00000000000000002D000000000000000000002D000000000000000000000000005E000000000000000000000000000000000000000000000000000000000000000000000000000000000000000000000000000000000000000000000000000000000000000000000000000000000000000000000000000000000000000000
310
000000000000000000000000000000000000000000000000000000000000000000000000000000000000000000000000000000000000000000000000000000000000000000000000005E0000000000000000000000000000000000000000000000002800000000000000000000000000000000000000000000000000000000
310
000000000000000000002D000000000000000000002D000000000000000000000000005E00000000000000000000000000000000000000000000000000000000000000000000000000000000000000000000000000000000000000000000000000000000000000000000000000000000000000000000000000000000000000
310
0000000000000000000000000000000000000000000000000000000000000000000000000000000000000000000000000000000000000000000000000000000000000000000000000000005E00000000000000000000000000000000000000DCDCDCDCDCDCDCDCDCDCDC2D2D2D2D2D2D2D2D2D2D2D2D2D2D2D2D2D2D2D2D00
310
000000000000000000000000DCDCDC00000000000000002D000000000000000000000000005E0000000000000000000000000000000000000000000000000000000000000000000000000000000000000000000000000000000000000000000000000000000000000000000000000000000000000000000000000000000000
310
00000000000000000000000000000000000000000000000000000000000000000000000000000000000000000000000000000000000000000000000000000000000000000000000000000000005E0000000000000000000000000000000000DCDCDCDCDCDCDC28DCDCDCDCDCDCDC000000000000000000000000000000002D
310
0000000000000000000000000000DC00DCDCDC0000000000002D000000000000000000000000005E000000000000000000000000000000000000000000000000000000000000000000000000000000000000000000000000000000000000000000000000000000000000000000000000000000000000000000000000000000
310
000000000000000000000000000000000000000000000000000000000000000000000000000000000000000000000000000000000000000000000000000000000000000000000000000000000000005E000000000000000000000000000000DCDCDCDCDC000000002800000000DCDCDCDCDC00000000000000000000000000
310
002D0000000000000000000000000000DC000000DCDC00000000002D000000000000000000000000005E00000000000000000000000000000000000000000000000000000000000000000000000000000000000000000000000000000000000000000000000000000000000000000000000000000000000000000000000000
310
0000000000000000000000000000000000000000000000000000000000000000000000000000000000000000000000000000000000000000000000000000000000000000000000000000000000000000005E0000000000000000000000000000DCDCDCDC00000000000028000000000000DCDCDCDC00000000000000000000
310
0000002D0000000000000000000000000000DC00000000DCDC000000002D000000000000000000000000005E0000000000000000000000000000000000000000000000000000000000000000000000000000000000000000000000000000000000000000000000000000000000000000000000000000000000000000000000
310
00000000000000000000000000000000000000000000000000000000000000000000000000000000000000000000000000000000000000000000000000000000000000000000000000000000000000000000005E00000000000000000000000000DCDCDC0000000000000000280000000000000000DCDCDCDC000000000000
310
00000000002D0000000000000000000000000000DC0000000000DCDC0000002D000000000000000000000000005E000000000000000000000000000000000000000000000000000000000000000000000000000000000000000000000000000000000000000000000000000000000000000000000000000000000000000000
310
000000000000000000000000000000000000000000000000000000000000000000000000000000000000000000000000000000000000000000000000000000000000000000000000000000000000000000000000005E000000000000000000000000DCDCDC00000000000000000028000000000000000000DCDCDC00000000
310
000000000000002D0000000000000000000000000000DC000000000000DCDC00002D000000000000000000000000005E00000000000000000000000000000000000000000000000000000000000000000000000000000000000000000000000000000000000000000000000000000000000000000000000000000000000000
310
0000000000000000000000000000000000000000000000000000000000000000000000000000000000000000000000000000000000000000000000000000000000000000000000000000000000000000000000000000005E0000000000000000000000DCDCDC000000000000000000002800000000000000000000DCDCDC00
310
0000000000000000002D0000000000000000000000000000DC00000000000000DCDC002D000000000000000000000000005E0000000000000000000000000000000000000000000000000000000000000000000000000000000000000000000000000000000000000000000000000000000000000000000000000000000000
310
00000000000000000000000000000000000000000000000000000000000000000000000000000000000000000000000000000000000000000000000000000000000000000000000000000000000000000000000000000000005E00000000000000000000DCDCDC0000000000000000000000280000000000000000000000DC
310
DCDC0000000000000000002D0000000000000000000000000000DC0000000000000000DC002D000000000000000000000000005E000000000000000000000000000000000000000000000000000000000000000000000000000000000000000000000000000000000000000000000000000000000000000000000000000000
310
000000000000000000000000000000000000000000000000000000000000000000000000000000000000000000000000000000000000000000000000000000000000000000000000000000000000000000000000000000000000005E00000000000000000000DCDC0000000000000000000000002800000000000000000000
310
0000DCDC0000000000000000002D0000000000000000000000000000DC0000000000000000DCDC2D000000000000000000000000005E00000000000000000000000000000000000000000000000000000000000000000000000000000000000000000000000000000000000000000000000000000000000000000000000000
310
00000000000000000000000000000000000000000000000000000000000000000000000000000000000000000000000000000000000000000000000000000000000000000000000000000000000000000000000000000000000016161616000000000000000000DCDCDC000000000000000000000000280000000000000000
310
00000000DCDCDC00000000000000002D0000000000000000000000000000DC000000000000000000DC2D00000000000000000000000000161616000000000000000000000000000000000000000000000000000000000000000000000000000000000000000000000000000000000000000000000000000000000000000000
310
00000000000000000000000000000000000000000000000000000000000000000000000000000000000000000000000000000000000000000000000000000000000000000000000000000000000000000000000000000000000000000000005E000000000000000000DCDC0000000000000000000000000028000000000000
310
F5000000000000DCDC00000000000000002D0000000000000000000000000000DC00000000000000000000DC000000000000000000000000005E000000000000000000000000000000000000000000000000000000000000000000000000000000000000000000000000000000000000000000000000000000000000000000
310
000000000000000000000000000000000000000000000000000000000000000000000000000000000000000000000000000000000000000000000000000000000000000000000000000000000000000000000000000000000000000000000000005E0000000000000000DCDCDC0000000000000000000000DCDC28DCDC0000
310
002DF5F50000000000DCDCDC000000000000002D0000000000000000000000000000DC00000000000000000000DC2D2D2D2D2D2D2D2D2D000000005E00000000000000000000000000000000000000000000000000000000000000000000000000000000000000000000000000000000000000000000000000000000000000
310
0000000000000000000000000000000000000000000000000000000000000000000000000000000000000000000000000000000000000000000000000000000000000000000000000000000000000000000000000000000000000000000000000000005E0000000000000000DCDC0000000000000000000000DCDC002800DC
310
DCDCF5F5F5F5000000000000DCDC000000000000002D0000000000000000000000000000DC00000000000000000000DC000000000000002D00000000005E0000000000000000000000000000000000000000000000000000000000000000000000000000000000000000000000000000000000000000000000000000000000
310
00000000000000000000000000000000000000000000000000000000000000000000000000000000000000000000000000000000000000000000000000000000000000000000000000000000000000000000000000000000000000000000000000000000005E0000000000000000DCDC00000000000000000000DCDCDCDC28
310
DCDC2DDC00F5F500000000000000DCDC000000000000F5F50000000000000000000000000000DC00000000000000000000DC0000000000F5F52D00000000005E000000000000000000000000000000000000000000000000000000000000000000000000000000000000000000000000000000000000000000000000000000
310
000000000000000000000000000000000000000000000000000000000000000000000000000000000000000000000000000000000000000000000000000000000000000000000000000000000000000000000000000000000000000000000000000000000000005E0000000000000000DCDC000000000000000000DCDCDCDC
310
DC28DCDCDCDCDC000000000000000000DCDC000000000000F5F50000000000000000000000000000DC00000000000000000000DC0000000000F5F52D00000000005E00000000000000000000000000000000000000000000000000000000000000000000000000000000000000000000000000000000000000000000000000
310
0000000000000000000000000000000000000000000000000000000000000000000000000000000000000000000000000000000000000000000000000000000000000000000000000000000000000000000000000000000000000000000000000000000000000000005E0000000000000000DCDC000000000000000000DC00
310
DCDC002800DCDC00DC000000000000000000DCDC000000000000F5F50000000000000000000000000000DC00000000000000000000DC0000000000F5F52D00000000005E0000000000000000000000000000000000000000000000000000000000000000000000000000000000000000000000000000000000000000000000
310
00000000000000000000000000000000000000000000000000000000000000000000000000000000000000000000000000000000000000000000000000000000000000000000000000000000000000000000000000000000000000000000000000000000000000000000005E0000000000002828DC28282828282828282828
310
282828282828282828282828282828282828282828DC282800000000F5F500000000000000000000000028282828282828282828282828DC2828000000F5F52D00000000005E000000000000000000000000000000000000000000000000000000000000000000000000000000000000000000000000000000000000000000
310
000000000000000000000000000000000000000000000000000000000000000000000000000000000000000000000000000000000000000000000000000000000000000000000000000000000000000000000000000000000000000000000000000000000000000000000000005E0000000000000000DCDC00000000000000
310
0000DC00DCDCDC28DCDCDC00DC000000000000000000DCDC000000000000F5F50000000000000000000000000000DC00000000000000000000DC0000000000F5F52D00000000005E00000000000000000000000000000000000000000000000000000000000000000000000000000000000000000000000000000000000000
310
0000000000000000000000000000000000000000000000000000000000000000000000000000000000000000000000000000000000000000000000000000000000000000000000000000000000000000000000000000000000000000000000000000000000000000000000000000005E0000000000000000DCDC0000000000
310
0000000000DC2DDCDC28DCDCDCDCDC000000000000000000DCDC000000000000F5F50000000000000000000000000000DC00000000000000000000DC0000000000F5F52D00000000005E0000000000000000000000000000000000000000000000000000000000000000000000000000000000000000000000000000000000
310
00000000000000000000000000000000000000000000000000000000000000000000000000000000000000000000000000000000000000000000000000000000000000000000000000000000000000000000000000000000000000000000000000000000000000000000000000000000005E0000000000000000DCDC000000
310
00000000000000DCDC00DC28DC00DCDC00000000000000000000DCDC000000000000F5F50000000000000000000000000000DC00000000000000000000DC0000000000F5F52D00000000005E000000000000000000000000000000000000000000000000000000000000000000000000000000000000000000000000000000
310
000000000000000000000000000000000000000000000000000000000000000000000000000000000000000000000000000000000000000000000000000000000000000000000000000000000000000000000000000000000000000000000000000000000000000000000000000000000000005E0000000000000000DCDCDC
310
00000000000000000000DCDCDC28DCDCDC0000000000000000000000DCDC000000000000002D0000000000000000000000000000DC00000000000000000000DC000000000000002D00000000005E00000000000000000000000000000000000000000000000000000000000000000000000000000000000000000000000000
310
0000000000000000000000000000000000000000000000000000000000000000000000000000000000000000000000000000000000000000000000000000000000000000000000000000000000000000000000000000000000000000000000000000000000000000000000000000000000000000005E000000000000000000
310
DCDC000000000000000000000000DC28DC000000000000000000000000DCDCDC000000000000002D0000000000000000000000000000DC00000000000000000000DC2D2D2D2D2D2D2D2D2D000000005E0000000000000000000000000000000000000000000000000000000000000000000000000000000000000000000000
310
00000000000000000000000000000000000000000000000000000000000000000000000000000000000000000000000000000000000000000000000000000000000000000000000000000000000000000000000000000000000000000000000000000000000000000000000000000000000000000000005E00000000000000
310
0000DCDC000000000000000000000000002800000000000000000000000000DCDC00000000000000002D0000000000000000000000000000DC00000000000000000000DC000000000000000000000000005E000000000000000000000000000000000000000000000000000000000000000000000000000000000000000000
310
0000000000000000000000000000000000000000000000000000000000000000000000000000000000000000000000000000000000000000000000000000000000000000000000000000000000000000000000000000000000000000000000000000000000000000000000000000000000000000000000EBEB5E0000000000
310
00000000DCDCDC00000000000000000000000028000000000000000000000000DCDCDC00000000000000002D0000000000000000000000000000DC000000000000000000DC0000000000000000000000000000EBEBEB0000000000000000000000000000000000000000000000000000000000000000000000000000000000
310
00000000000000000000000000000000000000000000000000000000000000000000000000000000000000000000000000000000000000000000000000000000000000000000000000000000000000000000000000000000000000000000000000000000000000000000000000000000000000000000000000EBEB5E000000
310
00000000000000DCDCDC000000000000000000000028000000000000000000000000DCDC0000000000000000002D0000000000000000000000000000DC0000000000000000DCDC0000000000000000000000000000EBEBEB000000000000000000000000000000000000000000000000000000000000000000000000000000
310
000000000000000000000000000000000000000000000000000000000000000000000000000000000000000000000000000000000000000000000000000000000000000000000000000000000000000000000000000000000000000000000000000000000000000000000000000000000000000000000000000000EBEB5E00
310
000000000000000000DCDCDC0000000000000000000000280000000000000000000000DCDCDC0000000000000000002D0000000000000000000000000000DC00000000000000DCDC000000000000000000000000000000EBEBEB00000000000000000000000000000000000000000000000000000000000000000000000000
310
00000000000000000000000000000000000000000000000000000000000000000000000000000000000000000000000000000000000000000000000000000000000000000000000000000000000000000000000000000000000000000000000000000000000000000000000000000000000000000000000000000000000000
310
5E0000000000000000000000DCDCDC000000000000000000002800000000000000000000DCDCDC000000000000000000002D0000000000000000000000000000DC00000000000000DC000000000000000000000000000000005E00000000000000000000000000000000000000000000000000000000000000000000000000
310
00000000000000000000000000000000000000000000000000000000000000000000000000000000000000000000000000000000000000000000000000000000000000000000000000000000000000000000000000000000000000000000000000000000000000000000000000000000000000000000000000000000000000
310
00005E000000000000000000000000DCDCDC00000000000000000028000000000000000000DCDCDC00000000000000000000002D0000000000000000000000000000DC000000000000DCDC000000000000000000000000000000005E0000000000000000000000000000000000000000000000000000000000000000000000
310
00000000000000000000000000000000000000000000000000000000000000000000000000000000000000000000000000000000000000000000000000000000000000000000000000000000000000000000000000000000000000000000000000000000000000000000000000000000000000000000000000000000000000
310
000000005E00000000000000000000000000DCDCDCDC000000000000002800000000000000DCDCDCDC0000000000000000000000002D0000000000000000000000000000DC0000000000DCDC00000000000000000000000000000000005E000000000000000000000000000000000000000000000000000000000000000000
310
00000000000000000000000000000000000000000000000000000000000000000000000000000000000000000000000000000000000000000000000000000000000000000000000000000000000000000000000000000000000000000000000000000000000000000000000000000000000000000000000000000000000000
310
0000000000005E0000000000000000000000000000DCDCDCDC00000000000028000000000000DCDCDCDC000000000000000000000000002D0000000000000000000000000000DC00000000DCDC0000000000000000000000000000000000005E00000000000000000000000000000000000000000000000000000000000000
310
00000000000000000000000000000000000000000000000000000000000000000000000000000000000000000000000000000000000000000000000000000000000000000000000000000000000000000000000000000000000000000000000000000000000000000000000000000000000000000000000000000000000000
310
00000000000000005E00000000000000000000000000000000DCDCDCDCDC00000028000000DCDCDCDCDCDC00000000000000000000000000002D0000000000000000000000000000DC0000DCDCDC000000000000000000000000000000000000005E0000000000000000000000000000000000000000000000000000000000
310
00000000000000000000000000000000000000000000000000000000000000000000000000000000000000000000000000000000000000000000000000000000000000000000000000000000000000000000000000000000000000000000000000000000000000000000000000000000000000000000000000000000000000
310
000000000000000000005E0000000000000000000000000000000000DCDCDCDCDCDCDC28DCDCDCDCDCDCDC000000000000000000000000000000002D0000000000000000000000000000DCDCDCDC0000000000000000000000000000000000000000005E000000000000000000000000000000000000000000000000000000
310
00000000000000000000000000000000000000000000000000000000000000000000000000000000000000000000000000000000000000000000000000000000000000000000000000000000000000000000000000000000000000000000000000000000000000000000000000000000000000000000000000000000000000
310
0000000000000000000000005E0000000000000000000000000000000000000000DCDCDCDCDCDCDCDCDC2D2D2D2D2D2D2D2D2D2D2D2D2D2D2D2D2D2D2D2D2D00000000000000000000000000DCDC00000000000000000000000000000000000000000000005E00000000000000000000000000000000000000000000000000
310
00000000000000000000000000000000000000000000000000000000000000000000000000000000000000000000000000000000000000000000000000000000000000000000000000000000000000000000000000000000000000000000000000000000000000000000000000000000000000000000000000000000000000
310
00000000000000000000000000005E000000000000000000000000000000000000000000000000280000000000000000000000000000000000000000000000000000000000000000000000000000000000000000000000000000000000000000000000000000005E0000000000000000000000000000000000000000000000
310
00000000000000000000000000000000000000000000000000000000000000000000000000000000000000000000000000000000000000000000000000000000000000000000000000000000000000000000000000000000000000000000000000000000000000000000000000000000000000000000000000000000000000
310
000000000000000000000000000000005E000000000000000000000000000000000000000000000000280000000000000000000000000000000000000000000000000000000000000000000000000000000000000000000000000000000000000000000000000000005E000000000000000000000000000000000000000000
310
00000000000000000000000000000000000000000000000000000000000000000000000000000000000000000000000000000000000000000000000000000000000000000000000000000000000000000000000000000000000000000000000000000000000000000000000000000000000000000000000000000000000000
310
0000000000000000000000000000000000005E000000000000000000000000000000000000000000000000000000000000000000000000000000000000000000000000000000000000000000000000000000000000000000000000000000000000000000000000000000005E00000000000000000000000000000000000000
310
00000000000000000000000000000000000000000000000000000000000000000000000000000000000000000000000000000000000000000000000000000000000000000000000000000000000000000000000000000000000000000000000000000000000000000000000000000000000000000000000000000000000000
310
00000000000000000000000000000000000000005E000000000000000000000000000000000000000000000000000000000000000000000000000000000000000000000000000000000000000000000000000000000000000000000000000000000000000000000000000000005E0000000000000000000000000000000000
310
00000000000000000000000000000000000000000000000000000000000000000000000000000000000000000000000000000000000000000000000000000000000000000000000000000000000000000000000000000000000000000000000000000000000000000000000000000000000000000000000000000000000000
310
000000000000000000000000000000000000000000005E000000000000000000000000000000000000000000000000000000000000000000000000000000000000000000000000000000000000000000000000000000000000000000000000000000000000000000000000000000005E000000000000000000000000000000
310
00000000000000000000000000000000000000000000000000000000000000000000000000000000000000000000000000000000000000000000000000000000000000000000000000000000000000000000000000000000000000000000000000000000000000000000000000000000000000000000000000000000000000
310
0000000000000000000000000000000000000000000000005E000000000000000000000000000000000000000000000000000000000000000000000000000000000000000000000000000000000000000000000000000000000000000000000000000000000000000000000000000000005E00000000000000000000000000
310
00000000000000000000000000000000000000000000000000000000000000000000000000000000000000000000000000000000000000000000000000000000000000000000000000000000000000000000000000000000000000000000000000000000000000000000000000000000000000000000000000000000000000
310
00000000000000000000000000000000000000000000001616161600000000000000000000000000000000000000000000000000000000000000000000000000000000000000000000000000000000000000000000000000000000000000000000000000000000000000000000000000000000161616000000000000000000
310
00000000000000000000000000000000000000000000000000000000000000000000000000000000000000000000000000000000000000000000000000000000000000000000000000000000000000000000000000000000000000000000000000000000000000000000000000000000000000000000000000000000000000
310
000000000000000000000000000000000000000000000000000000005E000000000000000000000000000000000000000000000000000000000000000000000000000000000000000000000000000000000000000000000000000000000000000000000000000000000000000000000000000000005E000000000000000000
310
00000000000000000000000000000000000000000000000000000000000000000000000000000000000000000000000000000000000000000000000000000000000000000000000000000000000000000000000000000000000000000000000000000000000000000000000000000000000000000000000000000000000000
310
0000000000000000000000000000000000000000000000000000000000005E000000000000000000000000000000000000000000000000000000000000000000000000000000000000000000000000000000000000000000000000000000000000000000000000000000000000000000000000000000005E00000000000000
310
00000000000000000000000000000000000000000000000000000000000000000000000000000000000000000000000000000000000000000000000000000000000000000000000000000000000000000000000000000000000000000000000000000000000000000000000000000000000000000000000000000000000000
310
00000000000000000000000000000000000000000000000000000000000000005E000000000000000000000000000000000000000000000000000000000000000000000000000000000000000000000000000000000000000000000000000000000000000000000000000000000000000000000000000000005E0000000000
310
00000000000000000000000000000000000000000000000000000000000000000000000000000000000000000000000000000000000000000000000000000000000000000000000000000000000000000000000000000000000000000000000000000000000000000000000000000000000000000000000000000000000000
310
0000000000000000000000000000000000000000000000000000000000000000EBEB5E00000000000000000000000000000000000000000000000000000000000000000000000000000000000000000000000000000000000000000000000000000000000000000000000000000000000000000000000000000000EBEBEB00
310
00000000000000000000000000000000000000000000000000000000000000000000000000000000000000000000000000000000000000000000000000000000000000000000000000000000000000000000000000000000000000000000000000000000000000000000000000000000000000000000000000000000000000
310
00000000000000000000000000000000000000000000000000000000000000000000EBEB5E000000000000000000000000000000000000000000000000000000000000000000000000000000000000000000000000000000000000000000000000000000000000000000000000000000000000000000000000000000005EEB
310
EB000000000000000000000000000000000000000000000000000000000000000000000000000000000000000000000000000000000000000000000000000000000000000000000000000000000000000000000000000000000000000000000000000000000000000000000000000000000000000000000000000000000000
310
000000000000000000000000000000000000000000000000000000000000000000000000EB005E00000000000000000000000000000000000000000000000000000000000000000000000000000000000000000000000000000000000000000000000000000000000000000000000000000000000000000000000000000000
310
5EEB0000000000000000000000000000000000000000000000000000000000000000000000000000000000000000000000000000000000000000000000000000000000000000000000000000000000000000000000000000000000000000000000000000000000000000000000000000000000000000000000000000000000
310
000000000000000000000000000000000000000000000000000000000000000000000000000000005E0000000000000000000000000000000000000000000000000000000000000000000000000000000000000000000000000000000000000000000000000000000000000000000000000000000000000000000000000000
310
00005E00000000000000000000000000000000000000000000000000000000000000000000000000000000000000000000000000000000000000000000000000000000000000000000000000000000000000000000000000000000000000000000000000000000000000000000000000000000000000000000000000000000
310
0000000000000000000000000000000000000000000000000000000000000000000000000000000000005E000000000000000000000000000000000000000000000000000000000000000000000000000000000000000000000000000000000000000000000000000000000000000000000000000000000000000000000000
310
000000005E0000000000000000000000000000000000000000000000000000000000000000000000000000000000000000000000000000000000000000000000000000000000000000000000000000000000000000000000000000000000000000000000000000000000000000000000000000000000000000000000000000
310
00000000000000000000000000000000000000000000000000000000000000000000000000000000000000005E5E5E5E5E5E5E5E5E5E5E5E5E5E5E5E5E5E5E165E5E5E5E5E5E5E5E5E5E5E5E5E5E5E5E5E5E5E5E5E5E5E5E165E5E5E5E5E5E5E5E5E5E5E5E5E5E5E5E5E5E5E5E5E5E5E5E5E165E5E5E5E5E5E5E5E5E5E5E5E
310
5E5E5E5E5E5E5E000000000000000000000000000000000000000000000000000000000000000000000000000000000000000000000000000000000000000000000000000000000000000000000000000000000000000000000000000000000000000000000000000000000000000000000000000000000000000000000000
310
00000000000000000000000000000000000000000000000000000000000000000000000000000000000000000000000000000000000000EBEB0000000000000000160000000000000000000000EBEB0000000000000000000000160000000000000000000000EBEBEB00000000000000000000001600000000000000EBEBEB
310
00000000000000000000000000000000000000000000000000000000000000000000000000000000000000000000000000000000000000000000000000000000000000000000000000000000000000000000000000000000000000000000000000000000000000000000000000000000000000000000000000000000000000
310
000000000000000000000000000000000000000000000000000000000000000000000000000000000000000000000000000000000000000000EB000000000000000000160000000000000000000000EBEB0000000000000000000000160000000000000000000000EBEBEB0000000000000000000000160000000000000000
310
EB000000000000000000000000000000000000000000000000000000000000000000000000000000000000000000000000000000000000000000000000000000000000000000000000000000000000000000000000000000000000000000000000000000000000000000000000000000000000000000000000000000000000
310
0000000000000000000000000000000000000000000000000000000000000000000000000000000000000000000000000000000000000000000000EB000000000000000000160000000000000000000000EBEB000000000000000000000016000000000000000000000000EB00000000000000000000000016000000000000
310
0000EB00000000000000000000000000000000000000000000000000000000000000000000000000000000000000000000000000000000000000000000000000000000000000000000000000000000000000000000000000000000000000000000000000000000000000000000000000000000000000000000000000000000
310
00000000000000000000000000000000000000000000000000000000000000000000000000000000000000000000000000000000000000000000000000000000000000000000000000000000000000000000000000000000000000000000000016000000000000000000000000000000000000000000000000000000000000
310
00000000000000000000000000000000000000000000000000000000000000000000000000000000000000000000000000000000000000000000000000000000000000000000000000000000000000000000000000000000000000000000000000000000000000000000000000000000000000000000000000000000000000
310
00000000000000000000000000000000000000000000000000000000000000000000000000000000000000000000000000000000000000000000000000000000000000000000000000000000000000000000000000000000000000000000000000001600000000000000000000000000000000000000000000000000000000
310
00000000000000000000000000000000000000000000000000000000000000000000000000000000000000000000000000000000000000000000000000000000000000000000000000000000000000000000000000000000000000000000000000000000000000000000000000000000000000000000000000000000000000
310
00000000000000000000000000000000000000000000000000000000000000000000000000000000000000000000000000000000000000000000000000000000000000000000000000000000000000000000000000000000000000000000000000000000000000000000000000000000000000000000000000000000000000
310
0000000000000000000000000000000000000000000000000000000000000000000000000000000000000000000000000000000000000000000000000000000000000000000000000000000000000000000000000000000000000000000000000000
  0
XRECORD
  5
4BD9
102
{ACAD_REACTORS
330
4BD8
102
}
330
4BD8
100
AcDbXrecord
280
     1
102
SHADEPLOT
 70
     0
102
SHADEPLOTRESLEVEL
 70
     2
102
SHADEPLOTCUSTOMDPI
 70
   300
  0
XRECORD
  5
4BDC
102
{ACAD_REACTORS
330
566
102
}
330
566
100
AcDbXrecord
280
     1
102
MATERIAL
148
0.0
149
0.0
149
0.0
 93
        0
 94
      127
282
     0
 72
     0
 77
     0
171
     0
175
     0
179
     0
273
     0
  0
XRECORD
  5
568
102
{ACAD_REACTORS
330
566
102
}
330
566
100
AcDbXrecord
280
     1
270
     1
271
     1
  0
XRECORD
  5
567
102
{ACAD_REACTORS
330
566
102
}
330
566
100
AcDbXrecord
280
     1
270
     1
271
     1
  0
XRECORD
  5
56B
102
{ACAD_REACTORS
330
566
102
}
330
566
100
AcDbXrecord
280
     1
270
     1
271
     1
  0
XRECORD
  5
56A
102
{ACAD_REACTORS
330
566
102
}
330
566
100
AcDbXrecord
280
     1
270
     1
271
     1
  0
XRECORD
  5
56C
102
{ACAD_REACTORS
330
566
102
}
330
566
100
AcDbXrecord
280
     1
270
     1
271
     1
  0
XRECORD
  5
569
102
{ACAD_REACTORS
330
566
102
}
330
566
100
AcDbXrecord
280
     1
270
     1
271
     1
  0
XRECORD
  5
4BDB
102
{ACAD_REACTORS
330
55E
102
}
330
55E
100
AcDbXrecord
280
     1
102
MATERIAL
148
0.0
149
0.0
149
0.0
 93
        0
 94
      127
282
     0
 72
     0
 77
     0
171
     0
175
     0
179
     0
273
     0
  0
XRECORD
  5
560
102
{ACAD_REACTORS
330
55E
102
}
330
55E
100
AcDbXrecord
280
     1
270
     1
271
     1
  0
XRECORD
  5
55F
102
{ACAD_REACTORS
330
55E
102
}
330
55E
100
AcDbXrecord
280
     1
270
     1
271
     1
  0
XRECORD
  5
563
102
{ACAD_REACTORS
330
55E
102
}
330
55E
100
AcDbXrecord
280
     1
270
     1
271
     1
  0
XRECORD
  5
562
102
{ACAD_REACTORS
330
55E
102
}
330
55E
100
AcDbXrecord
280
     1
270
     1
271
     1
  0
XRECORD
  5
564
102
{ACAD_REACTORS
330
55E
102
}
330
55E
100
AcDbXrecord
280
     1
270
     1
271
     1
  0
XRECORD
  5
561
102
{ACAD_REACTORS
330
55E
102
}
330
55E
100
AcDbXrecord
280
     1
270
     1
271
     1
  0
XRECORD
  5
4BDD
102
{ACAD_REACTORS
330
56E
102
}
330
56E
100
AcDbXrecord
280
     1
102
MATERIAL
148
0.0
149
0.0
149
0.0
 93
        0
 94
      127
282
     0
 72
     0
 77
     0
171
     0
175
     0
179
     0
273
     0
  0
XRECORD
  5
570
102
{ACAD_REACTORS
330
56E
102
}
330
56E
100
AcDbXrecord
280
     1
270
     1
271
     1
  0
XRECORD
  5
56F
102
{ACAD_REACTORS
330
56E
102
}
330
56E
100
AcDbXrecord
280
     1
270
     1
271
     1
  0
XRECORD
  5
573
102
{ACAD_REACTORS
330
56E
102
}
330
56E
100
AcDbXrecord
280
     1
270
     1
271
     1
  0
XRECORD
  5
572
102
{ACAD_REACTORS
330
56E
102
}
330
56E
100
AcDbXrecord
280
     1
270
     1
271
     1
  0
XRECORD
  5
574
102
{ACAD_REACTORS
330
56E
102
}
330
56E
100
AcDbXrecord
280
     1
270
     1
271
     1
  0
XRECORD
  5
571
102
{ACAD_REACTORS
330
56E
102
}
330
56E
100
AcDbXrecord
280
     1
270
     1
271
     1
  0
XRECORD
  5
4C1B
102
{ACAD_REACTORS
330
4C1A
102
}
330
4C1A
100
AcDbXrecord
280
     1
102
ACAD_ROUNDTRIP_2012_MLEADER_STYLE
298
     1
  0
XRECORD
  5
4C17
102
{ACAD_REACTORS
330
4C16
102
}
330
4C16
100
AcDbXrecord
280
     1
102
DISPLAYNAME
  1
Imperial24
102
FLAGS
 90
        0
  0
XRECORD
  5
4C13
102
{ACAD_REACTORS
330
4C12
102
}
330
4C12
100
AcDbXrecord
280
     1
102
DISPLAYNAME
  1
Metric50
102
FLAGS
 90
        0
  0
CELLSTYLEMAP
  5
4BD2
102
{ACAD_REACTORS
330
5C5
102
}
330
5C5
100
AcDbCellStyleMap
 90
        3
300
CELLSTYLE
  1
TABLEFORMAT_BEGIN
 90
        5
170
     1
 91
        0
 92
    32768
 62
   257
 93
        1
300
CONTENTFORMAT
  1
CONTENTFORMAT_BEGIN
 90
        0
 91
        0
 92
        4
 93
        0
300

 40
0.0
140
1.0
 94
        5
 62
     0
340
10
144
6.0
309
CONTENTFORMAT_END
171
     1
301
MARGIN
  1
CELLMARGIN_BEGIN
 40
1.5
 40
1.5
 40
1.5
 40
1.5
 40
0.18
 40
0.18
309
CELLMARGIN_END
 94
        6
 95
        1
302
GRIDFORMAT
  1
GRIDFORMAT_BEGIN
 90
        0
 91
        1
 62
     0
 92
       -2
340
0
 93
        0
 40
0.045
309
GRIDFORMAT_END
 95
        2
302
GRIDFORMAT
  1
GRIDFORMAT_BEGIN
 90
        0
 91
        1
 62
     0
 92
       -2
340
0
 93
        0
 40
0.045
309
GRIDFORMAT_END
 95
        4
302
GRIDFORMAT
  1
GRIDFORMAT_BEGIN
 90
        0
 91
        1
 62
     0
 92
       -2
340
0
 93
        0
 40
0.045
309
GRIDFORMAT_END
 95
        8
302
GRIDFORMAT
  1
GRIDFORMAT_BEGIN
 90
        0
 91
        1
 62
     0
 92
       -2
340
0
 93
        0
 40
0.045
309
GRIDFORMAT_END
 95
       16
302
GRIDFORMAT
  1
GRIDFORMAT_BEGIN
 90
        0
 91
        1
 62
     0
 92
       -2
340
0
 93
        0
 40
0.045
309
GRIDFORMAT_END
 95
       32
302
GRIDFORMAT
  1
GRIDFORMAT_BEGIN
 90
        0
 91
        1
 62
     0
 92
       -2
340
0
 93
        0
 40
0.045
309
GRIDFORMAT_END
309
TABLEFORMAT_END
  1
CELLSTYLE_BEGIN
 90
        1
 91
        1
300
_TITLE
309
CELLSTYLE_END
300
CELLSTYLE
  1
TABLEFORMAT_BEGIN
 90
        5
170
     1
 91
        0
 92
        0
 62
   257
 93
        1
300
CONTENTFORMAT
  1
CONTENTFORMAT_BEGIN
 90
        0
 91
        0
 92
        4
 93
        0
300

 40
0.0
140
1.0
 94
        5
 62
     0
340
10
144
4.5
309
CONTENTFORMAT_END
171
     1
301
MARGIN
  1
CELLMARGIN_BEGIN
 40
1.5
 40
1.5
 40
1.5
 40
1.5
 40
0.18
 40
0.18
309
CELLMARGIN_END
 94
        6
 95
        1
302
GRIDFORMAT
  1
GRIDFORMAT_BEGIN
 90
        0
 91
        1
 62
     0
 92
       -2
340
0
 93
        0
 40
0.045
309
GRIDFORMAT_END
 95
        2
302
GRIDFORMAT
  1
GRIDFORMAT_BEGIN
 90
        0
 91
        1
 62
     0
 92
       -2
340
0
 93
        0
 40
0.045
309
GRIDFORMAT_END
 95
        4
302
GRIDFORMAT
  1
GRIDFORMAT_BEGIN
 90
        0
 91
        1
 62
     0
 92
       -2
340
0
 93
        0
 40
0.045
309
GRIDFORMAT_END
 95
        8
302
GRIDFORMAT
  1
GRIDFORMAT_BEGIN
 90
        0
 91
        1
 62
     0
 92
       -2
340
0
 93
        0
 40
0.045
309
GRIDFORMAT_END
 95
       16
302
GRIDFORMAT
  1
GRIDFORMAT_BEGIN
 90
        0
 91
        1
 62
     0
 92
       -2
340
0
 93
        0
 40
0.045
309
GRIDFORMAT_END
 95
       32
302
GRIDFORMAT
  1
GRIDFORMAT_BEGIN
 90
        0
 91
        1
 62
     0
 92
       -2
340
0
 93
        0
 40
0.045
309
GRIDFORMAT_END
309
TABLEFORMAT_END
  1
CELLSTYLE_BEGIN
 90
        2
 91
        1
300
_HEADER
309
CELLSTYLE_END
300
CELLSTYLE
  1
TABLEFORMAT_BEGIN
 90
        5
170
     1
 91
        0
 92
        0
 62
   257
 93
        1
300
CONTENTFORMAT
  1
CONTENTFORMAT_BEGIN
 90
        0
 91
        0
 92
        4
 93
        0
300

 40
0.0
140
1.0
 94
        2
 62
     0
340
10
144
4.5
309
CONTENTFORMAT_END
171
     1
301
MARGIN
  1
CELLMARGIN_BEGIN
 40
1.5
 40
1.5
 40
1.5
 40
1.5
 40
0.18
 40
0.18
309
CELLMARGIN_END
 94
        6
 95
        1
302
GRIDFORMAT
  1
GRIDFORMAT_BEGIN
 90
        0
 91
        1
 62
     0
 92
       -2
340
0
 93
        0
 40
0.045
309
GRIDFORMAT_END
 95
        2
302
GRIDFORMAT
  1
GRIDFORMAT_BEGIN
 90
        0
 91
        1
 62
     0
 92
       -2
340
0
 93
        0
 40
0.045
309
GRIDFORMAT_END
 95
        4
302
GRIDFORMAT
  1
GRIDFORMAT_BEGIN
 90
        0
 91
        1
 62
     0
 92
       -2
340
0
 93
        0
 40
0.045
309
GRIDFORMAT_END
 95
        8
302
GRIDFORMAT
  1
GRIDFORMAT_BEGIN
 90
        0
 91
        1
 62
     0
 92
       -2
340
0
 93
        0
 40
0.045
309
GRIDFORMAT_END
 95
       16
302
GRIDFORMAT
  1
GRIDFORMAT_BEGIN
 90
        0
 91
        1
 62
     0
 92
       -2
340
0
 93
        0
 40
0.045
309
GRIDFORMAT_END
 95
       32
302
GRIDFORMAT
  1
GRIDFORMAT_BEGIN
 90
        0
 91
        1
 62
     0
 92
       -2
340
0
 93
        0
 40
0.045
309
GRIDFORMAT_END
309
TABLEFORMAT_END
  1
CELLSTYLE_BEGIN
 90
        3
 91
        2
300
_DATA
309
CELLSTYLE_END
  0
XRECORD
  5
4BDA
102
{ACAD_REACTORS
330
5C5
102
}
330
5C5
100
AcDbXrecord
280
     1
102
ACAD_ROUNDTRIP_PRE2007_TABLESTYLE
 90
        4
 91
        0
  1

 92
        4
 93
        0
  2

 94
        4
 95
        0
  3

  0
XRECORD
  5
4BE9
102
{ACAD_REACTORS
330
4BE8
102
}
330
4BE8
100
AcDbXrecord
280
     1
102
RTVSPost2010Prop28
280
     1
102
RTVSPost2010PropOp28
 70
     1
102
RTVSPost2010Prop29
280
     1
102
RTVSPost2010PropOp29
 70
     1
102
RTVSPost2010Prop30
280
     0
102
RTVSPost2010PropOp30
 70
     1
102
RTVSPost2010Prop31
280
     0
102
RTVSPost2010PropOp31
 70
     1
102
RTVSPost2010Prop32
280
     0
102
RTVSPost2010PropOp32
 70
     1
102
RTVSPost2010Prop33
280
     0
102
RTVSPost2010PropOp33
 70
     1
102
RTVSPost2010Prop34
280
     0
102
RTVSPost2010PropOp34
 70
     1
102
RTVSPost2010Prop35
280
     0
102
RTVSPost2010PropOp35
 70
     1
102
RTVSPost2010Prop36
280
     0
102
RTVSPost2010PropOp36
 70
     1
102
RTVSPost2010Prop37
 90
       50
102
RTVSPost2010PropOp37
 70
     1
102
RTVSPost2010Prop38
140
0.0
102
RTVSPost2010PropOp38
 70
     1
102
RTVSPost2010Prop39
140
1.0
102
RTVSPost2010PropOp39
 70
     1
102
RTVSPost2010Prop40
 90
        0
102
RTVSPost2010PropOp40
 70
     1
102
RTVSPost2010Prop41ColorIndex
 90
       18
102
RTVSPost2010Prop41ColorRGB
 90
        0
102
RTVSPost2010PropOp41
 70
     1
102
RTVSPost2010Prop42
 90
       50
102
RTVSPost2010PropOp42
 70
     1
102
RTVSPost2010Prop43
 90
        3
102
RTVSPost2010PropOp43
 70
     1
102
RTVSPost2010Prop44ColorIndex
 90
        5
102
RTVSPost2010Prop44ColorRGB
 90
      255
102
RTVSPost2010PropOp44
 70
     1
102
RTVSPost2010Prop45
280
     0
102
RTVSPost2010PropOp45
 70
     1
102
RTVSPost2010Prop46
 90
       50
102
RTVSPost2010PropOp46
 70
     1
102
RTVSPost2010Prop47
 90
       50
102
RTVSPost2010PropOp47
 70
     1
102
RTVSPost2010Prop48
 90
       50
102
RTVSPost2010PropOp48
 70
     1
102
RTVSPost2010Prop49
280
     0
102
RTVSPost2010PropOp49
 70
     1
102
RTVSPost2010Prop50
 90
       50
102
RTVSPost2010PropOp50
 70
     1
102
RTVSPost2010Prop51ColorIndex
 90
      256
102
RTVSPost2010Prop51ColorRGB
 90
-16777216
102
RTVSPost2010PropOp51
 70
     0
102
RTVSPost2010Prop52
140
1.0
102
RTVSPost2010PropOp52
 70
     0
102
RTVSPost2010Prop53
 90
        2
102
RTVSPost2010PropOp53
 70
     1
102
RTVSPost2010Prop54
  1
strokes_ogs.tif
102
RTVSPost2010PropOp54
 70
     1
102
RTVSPost2010Prop55
280
     0
102
RTVSPost2010PropOp55
 70
     1
102
RTVSPost2010Prop56
140
1.0
102
RTVSPost2010PropOp56
 70
     1
102
RTVSPost2010Prop57
140
1.0
102
RTVSPost2010PropOp57
 70
     1
102
RTVSPropertyOp0
 70
     1
102
RTVSPropertyOp1
 70
     1
102
RTVSPropertyOp2
 70
     1
102
RTVSPropertyOp3
 70
     1
102
RTVSPropertyOp4
 70
     1
102
RTVSPropertyOp5
 70
     1
102
RTVSPropertyOp6
 70
     1
102
RTVSPropertyOp7
 70
     1
102
RTVSPropertyOp8
 70
     1
102
RTVSPropertyOp9
 70
     1
102
RTVSPropertyOp10
 70
     1
102
RTVSPropertyOp11
 70
     1
102
RTVSPropertyOp12
 70
     1
102
RTVSPropertyOp13
 70
     1
102
RTVSPropertyOp14
 70
     1
102
RTVSPropertyOp15
 70
     1
102
RTVSPropertyOp16
 70
     1
102
RTVSPropertyOp17
 70
     1
102
RTVSPropertyOp18
 70
     1
102
RTVSPropertyOp19
 70
     1
102
RTVSPropertyOp20
 70
     1
102
RTVSPropertyOp21
 70
     1
102
RTVSPropertyOp22
 70
     1
102
RTVSPropertyOp23
 70
     1
102
RTVSPropertyOp24
 70
     1
102
RTVSPropertyOp25
 70
     1
102
RTVSPropertyOp26
 70
     1
102
RTVSPropertyOp27
 70
     1
102
RTVSPropertyOp28
 70
     1
102
RTVSPropertyOp29
 70
     1
102
RTVSPropertyOp30
 70
     1
102
RTVSPropertyOp31
 70
     1
102
RTVSPropertyOp32
 70
     1
102
RTVSPropertyOp33
 70
     1
102
RTVSPropertyOp34
 70
     1
102
RTVSPropertyOp35
 70
     1
102
RTVSPropertyOp36
 70
     1
102
RTVSPropertyOp37
 70
     1
102
RTVSPropertyOp38
 70
     1
102
RTVSPropertyOp39
 70
     1
102
RTVSPropertyOp40
 70
     1
102
RTVSPropertyOp41
 70
     1
102
RTVSPropertyOp42
 70
     1
102
RTVSPropertyOp43
 70
     1
102
RTVSPropertyOp44
 70
     1
102
RTVSPropertyOp45
 70
     1
102
RTVSPropertyOp46
 70
     1
102
RTVSPropertyOp47
 70
     1
102
RTVSPropertyOp48
 70
     1
102
RTVSPropertyOp49
 70
     1
102
RTVSPropertyOp50
 70
     1
102
RTVSPropertyOp51
 70
     0
102
RTVSPropertyOp52
 70
     0
102
RTVSPropertyOp53
 70
     1
102
RTVSPropertyOp54
 70
     1
102
RTVSPropertyOp55
 70
     1
102
RTVSPropertyOp56
 70
     1
102
RTVSPropertyOp57
 70
     1
102
RTVSPropertyOp58
 70
     1
102
RTVSPropertyOp59
 70
     1
102
RTVSPropertyOp60
 70
     1
102
RTVSPropertyOp61
 70
     1
102
RTVSPropertyOp62
 70
     1
  0
XRECORD
  5
4BED
102
{ACAD_REACTORS
330
4BEC
102
}
330
4BEC
100
AcDbXrecord
280
     1
102
RTVSPost2010Prop28
280
     0
102
RTVSPost2010PropOp28
 70
     1
102
RTVSPost2010Prop29
280
     1
102
RTVSPost2010PropOp29
 70
     1
102
RTVSPost2010Prop30
280
     1
102
RTVSPost2010PropOp30
 70
     1
102
RTVSPost2010Prop31
280
     0
102
RTVSPost2010PropOp31
 70
     1
102
RTVSPost2010Prop32
280
     0
102
RTVSPost2010PropOp32
 70
     1
102
RTVSPost2010Prop33
280
     0
102
RTVSPost2010PropOp33
 70
     1
102
RTVSPost2010Prop34
280
     0
102
RTVSPost2010PropOp34
 70
     1
102
RTVSPost2010Prop35
280
     0
102
RTVSPost2010PropOp35
 70
     1
102
RTVSPost2010Prop36
280
     0
102
RTVSPost2010PropOp36
 70
     1
102
RTVSPost2010Prop37
 90
       50
102
RTVSPost2010PropOp37
 70
     1
102
RTVSPost2010Prop38
140
0.0
102
RTVSPost2010PropOp38
 70
     1
102
RTVSPost2010Prop39
140
1.0
102
RTVSPost2010PropOp39
 70
     1
102
RTVSPost2010Prop40
 90
        0
102
RTVSPost2010PropOp40
 70
     1
102
RTVSPost2010Prop41ColorIndex
 90
       18
102
RTVSPost2010Prop41ColorRGB
 90
        0
102
RTVSPost2010PropOp41
 70
     1
102
RTVSPost2010Prop42
 90
       50
102
RTVSPost2010PropOp42
 70
     1
102
RTVSPost2010Prop43
 90
        3
102
RTVSPost2010PropOp43
 70
     1
102
RTVSPost2010Prop44ColorIndex
 90
        5
102
RTVSPost2010Prop44ColorRGB
 90
      255
102
RTVSPost2010PropOp44
 70
     1
102
RTVSPost2010Prop45
280
     0
102
RTVSPost2010PropOp45
 70
     1
102
RTVSPost2010Prop46
 90
       50
102
RTVSPost2010PropOp46
 70
     1
102
RTVSPost2010Prop47
 90
       50
102
RTVSPost2010PropOp47
 70
     1
102
RTVSPost2010Prop48
 90
       50
102
RTVSPost2010PropOp48
 70
     1
102
RTVSPost2010Prop49
280
     0
102
RTVSPost2010PropOp49
 70
     1
102
RTVSPost2010Prop50
 90
       50
102
RTVSPost2010PropOp50
 70
     1
102
RTVSPost2010Prop51ColorIndex
 90
      256
102
RTVSPost2010Prop51ColorRGB
 90
-16777216
102
RTVSPost2010PropOp51
 70
     0
102
RTVSPost2010Prop52
140
1.0
102
RTVSPost2010PropOp52
 70
     0
102
RTVSPost2010Prop53
 90
        2
102
RTVSPost2010PropOp53
 70
     1
102
RTVSPost2010Prop54
  1
strokes_ogs.tif
102
RTVSPost2010PropOp54
 70
     1
102
RTVSPost2010Prop55
280
     0
102
RTVSPost2010PropOp55
 70
     1
102
RTVSPost2010Prop56
140
1.0
102
RTVSPost2010PropOp56
 70
     1
102
RTVSPost2010Prop57
140
1.0
102
RTVSPost2010PropOp57
 70
     1
102
RTVSPropertyOp0
 70
     1
102
RTVSPropertyOp1
 70
     1
102
RTVSPropertyOp2
 70
     1
102
RTVSPropertyOp3
 70
     1
102
RTVSPropertyOp4
 70
     1
102
RTVSPropertyOp5
 70
     1
102
RTVSPropertyOp6
 70
     1
102
RTVSPropertyOp7
 70
     1
102
RTVSPropertyOp8
 70
     1
102
RTVSPropertyOp9
 70
     1
102
RTVSPropertyOp10
 70
     1
102
RTVSPropertyOp11
 70
     1
102
RTVSPropertyOp12
 70
     1
102
RTVSPropertyOp13
 70
     1
102
RTVSPropertyOp14
 70
     1
102
RTVSPropertyOp15
 70
     1
102
RTVSPropertyOp16
 70
     1
102
RTVSPropertyOp17
 70
     1
102
RTVSPropertyOp18
 70
     1
102
RTVSPropertyOp19
 70
     1
102
RTVSPropertyOp20
 70
     1
102
RTVSPropertyOp21
 70
     1
102
RTVSPropertyOp22
 70
     1
102
RTVSPropertyOp23
 70
     1
102
RTVSPropertyOp24
 70
     1
102
RTVSPropertyOp25
 70
     1
102
RTVSPropertyOp26
 70
     1
102
RTVSPropertyOp27
 70
     1
102
RTVSPropertyOp28
 70
     1
102
RTVSPropertyOp29
 70
     1
102
RTVSPropertyOp30
 70
     1
102
RTVSPropertyOp31
 70
     1
102
RTVSPropertyOp32
 70
     1
102
RTVSPropertyOp33
 70
     1
102
RTVSPropertyOp34
 70
     1
102
RTVSPropertyOp35
 70
     1
102
RTVSPropertyOp36
 70
     1
102
RTVSPropertyOp37
 70
     1
102
RTVSPropertyOp38
 70
     1
102
RTVSPropertyOp39
 70
     1
102
RTVSPropertyOp40
 70
     1
102
RTVSPropertyOp41
 70
     1
102
RTVSPropertyOp42
 70
     1
102
RTVSPropertyOp43
 70
     1
102
RTVSPropertyOp44
 70
     1
102
RTVSPropertyOp45
 70
     1
102
RTVSPropertyOp46
 70
     1
102
RTVSPropertyOp47
 70
     1
102
RTVSPropertyOp48
 70
     1
102
RTVSPropertyOp49
 70
     1
102
RTVSPropertyOp50
 70
     1
102
RTVSPropertyOp51
 70
     0
102
RTVSPropertyOp52
 70
     0
102
RTVSPropertyOp53
 70
     1
102
RTVSPropertyOp54
 70
     1
102
RTVSPropertyOp55
 70
     1
102
RTVSPropertyOp56
 70
     1
102
RTVSPropertyOp57
 70
     1
102
RTVSPropertyOp58
 70
     1
102
RTVSPropertyOp59
 70
     1
102
RTVSPropertyOp60
 70
     1
102
RTVSPropertyOp61
 70
     1
102
RTVSPropertyOp62
 70
     1
  0
XRECORD
  5
4BEB
102
{ACAD_REACTORS
330
4BEA
102
}
330
4BEA
100
AcDbXrecord
280
     1
102
RTVSPost2010Prop28
280
     0
102
RTVSPost2010PropOp28
 70
     1
102
RTVSPost2010Prop29
280
     1
102
RTVSPost2010PropOp29
 70
     1
102
RTVSPost2010Prop30
280
     1
102
RTVSPost2010PropOp30
 70
     1
102
RTVSPost2010Prop31
280
     0
102
RTVSPost2010PropOp31
 70
     1
102
RTVSPost2010Prop32
280
     0
102
RTVSPost2010PropOp32
 70
     1
102
RTVSPost2010Prop33
280
     0
102
RTVSPost2010PropOp33
 70
     1
102
RTVSPost2010Prop34
280
     0
102
RTVSPost2010PropOp34
 70
     1
102
RTVSPost2010Prop35
280
     0
102
RTVSPost2010PropOp35
 70
     1
102
RTVSPost2010Prop36
280
     0
102
RTVSPost2010PropOp36
 70
     1
102
RTVSPost2010Prop37
 90
       50
102
RTVSPost2010PropOp37
 70
     1
102
RTVSPost2010Prop38
140
0.0
102
RTVSPost2010PropOp38
 70
     1
102
RTVSPost2010Prop39
140
1.0
102
RTVSPost2010PropOp39
 70
     1
102
RTVSPost2010Prop40
 90
        0
102
RTVSPost2010PropOp40
 70
     1
102
RTVSPost2010Prop41ColorIndex
 90
       18
102
RTVSPost2010Prop41ColorRGB
 90
        0
102
RTVSPost2010PropOp41
 70
     1
102
RTVSPost2010Prop42
 90
       50
102
RTVSPost2010PropOp42
 70
     1
102
RTVSPost2010Prop43
 90
        3
102
RTVSPost2010PropOp43
 70
     1
102
RTVSPost2010Prop44ColorIndex
 90
        5
102
RTVSPost2010Prop44ColorRGB
 90
      255
102
RTVSPost2010PropOp44
 70
     1
102
RTVSPost2010Prop45
280
     0
102
RTVSPost2010PropOp45
 70
     1
102
RTVSPost2010Prop46
 90
       50
102
RTVSPost2010PropOp46
 70
     1
102
RTVSPost2010Prop47
 90
       50
102
RTVSPost2010PropOp47
 70
     1
102
RTVSPost2010Prop48
 90
       50
102
RTVSPost2010PropOp48
 70
     1
102
RTVSPost2010Prop49
280
     0
102
RTVSPost2010PropOp49
 70
     1
102
RTVSPost2010Prop50
 90
       50
102
RTVSPost2010PropOp50
 70
     1
102
RTVSPost2010Prop51ColorIndex
 90
      256
102
RTVSPost2010Prop51ColorRGB
 90
-16777216
102
RTVSPost2010PropOp51
 70
     0
102
RTVSPost2010Prop52
140
1.0
102
RTVSPost2010PropOp52
 70
     0
102
RTVSPost2010Prop53
 90
        2
102
RTVSPost2010PropOp53
 70
     1
102
RTVSPost2010Prop54
  1
strokes_ogs.tif
102
RTVSPost2010PropOp54
 70
     1
102
RTVSPost2010Prop55
280
     0
102
RTVSPost2010PropOp55
 70
     1
102
RTVSPost2010Prop56
140
1.0
102
RTVSPost2010PropOp56
 70
     1
102
RTVSPost2010Prop57
140
1.0
102
RTVSPost2010PropOp57
 70
     1
102
RTVSPropertyOp0
 70
     1
102
RTVSPropertyOp1
 70
     1
102
RTVSPropertyOp2
 70
     1
102
RTVSPropertyOp3
 70
     1
102
RTVSPropertyOp4
 70
     1
102
RTVSPropertyOp5
 70
     1
102
RTVSPropertyOp6
 70
     1
102
RTVSPropertyOp7
 70
     1
102
RTVSPropertyOp8
 70
     1
102
RTVSPropertyOp9
 70
     1
102
RTVSPropertyOp10
 70
     1
102
RTVSPropertyOp11
 70
     1
102
RTVSPropertyOp12
 70
     1
102
RTVSPropertyOp13
 70
     1
102
RTVSPropertyOp14
 70
     1
102
RTVSPropertyOp15
 70
     1
102
RTVSPropertyOp16
 70
     1
102
RTVSPropertyOp17
 70
     1
102
RTVSPropertyOp18
 70
     1
102
RTVSPropertyOp19
 70
     1
102
RTVSPropertyOp20
 70
     1
102
RTVSPropertyOp21
 70
     1
102
RTVSPropertyOp22
 70
     1
102
RTVSPropertyOp23
 70
     1
102
RTVSPropertyOp24
 70
     1
102
RTVSPropertyOp25
 70
     1
102
RTVSPropertyOp26
 70
     1
102
RTVSPropertyOp27
 70
     1
102
RTVSPropertyOp28
 70
     1
102
RTVSPropertyOp29
 70
     1
102
RTVSPropertyOp30
 70
     1
102
RTVSPropertyOp31
 70
     1
102
RTVSPropertyOp32
 70
     1
102
RTVSPropertyOp33
 70
     1
102
RTVSPropertyOp34
 70
     1
102
RTVSPropertyOp35
 70
     1
102
RTVSPropertyOp36
 70
     1
102
RTVSPropertyOp37
 70
     1
102
RTVSPropertyOp38
 70
     1
102
RTVSPropertyOp39
 70
     1
102
RTVSPropertyOp40
 70
     1
102
RTVSPropertyOp41
 70
     1
102
RTVSPropertyOp42
 70
     1
102
RTVSPropertyOp43
 70
     1
102
RTVSPropertyOp44
 70
     1
102
RTVSPropertyOp45
 70
     1
102
RTVSPropertyOp46
 70
     1
102
RTVSPropertyOp47
 70
     1
102
RTVSPropertyOp48
 70
     1
102
RTVSPropertyOp49
 70
     1
102
RTVSPropertyOp50
 70
     1
102
RTVSPropertyOp51
 70
     0
102
RTVSPropertyOp52
 70
     0
102
RTVSPropertyOp53
 70
     1
102
RTVSPropertyOp54
 70
     1
102
RTVSPropertyOp55
 70
     1
102
RTVSPropertyOp56
 70
     1
102
RTVSPropertyOp57
 70
     1
102
RTVSPropertyOp58
 70
     1
102
RTVSPropertyOp59
 70
     1
102
RTVSPropertyOp60
 70
     1
102
RTVSPropertyOp61
 70
     1
102
RTVSPropertyOp62
 70
     1
  0
XRECORD
  5
4BE7
102
{ACAD_REACTORS
330
4BE6
102
}
330
4BE6
100
AcDbXrecord
280
     1
102
RTVSPost2010Prop28
280
     0
102
RTVSPost2010PropOp28
 70
     1
102
RTVSPost2010Prop29
280
     1
102
RTVSPost2010PropOp29
 70
     1
102
RTVSPost2010Prop30
280
     1
102
RTVSPost2010PropOp30
 70
     1
102
RTVSPost2010Prop31
280
     0
102
RTVSPost2010PropOp31
 70
     1
102
RTVSPost2010Prop32
280
     0
102
RTVSPost2010PropOp32
 70
     1
102
RTVSPost2010Prop33
280
     0
102
RTVSPost2010PropOp33
 70
     1
102
RTVSPost2010Prop34
280
     0
102
RTVSPost2010PropOp34
 70
     1
102
RTVSPost2010Prop35
280
     0
102
RTVSPost2010PropOp35
 70
     1
102
RTVSPost2010Prop36
280
     0
102
RTVSPost2010PropOp36
 70
     1
102
RTVSPost2010Prop37
 90
       50
102
RTVSPost2010PropOp37
 70
     1
102
RTVSPost2010Prop38
140
0.0
102
RTVSPost2010PropOp38
 70
     1
102
RTVSPost2010Prop39
140
1.0
102
RTVSPost2010PropOp39
 70
     1
102
RTVSPost2010Prop40
 90
        0
102
RTVSPost2010PropOp40
 70
     1
102
RTVSPost2010Prop41ColorIndex
 90
       18
102
RTVSPost2010Prop41ColorRGB
 90
        0
102
RTVSPost2010PropOp41
 70
     1
102
RTVSPost2010Prop42
 90
       50
102
RTVSPost2010PropOp42
 70
     1
102
RTVSPost2010Prop43
 90
        3
102
RTVSPost2010PropOp43
 70
     1
102
RTVSPost2010Prop44ColorIndex
 90
        5
102
RTVSPost2010Prop44ColorRGB
 90
      255
102
RTVSPost2010PropOp44
 70
     1
102
RTVSPost2010Prop45
280
     0
102
RTVSPost2010PropOp45
 70
     1
102
RTVSPost2010Prop46
 90
       50
102
RTVSPost2010PropOp46
 70
     1
102
RTVSPost2010Prop47
 90
       50
102
RTVSPost2010PropOp47
 70
     1
102
RTVSPost2010Prop48
 90
       50
102
RTVSPost2010PropOp48
 70
     1
102
RTVSPost2010Prop49
280
     0
102
RTVSPost2010PropOp49
 70
     1
102
RTVSPost2010Prop50
 90
       50
102
RTVSPost2010PropOp50
 70
     1
102
RTVSPost2010Prop51ColorIndex
 90
      256
102
RTVSPost2010Prop51ColorRGB
 90
-16777216
102
RTVSPost2010PropOp51
 70
     0
102
RTVSPost2010Prop52
140
1.0
102
RTVSPost2010PropOp52
 70
     0
102
RTVSPost2010Prop53
 90
        2
102
RTVSPost2010PropOp53
 70
     1
102
RTVSPost2010Prop54
  1
strokes_ogs.tif
102
RTVSPost2010PropOp54
 70
     1
102
RTVSPost2010Prop55
280
     0
102
RTVSPost2010PropOp55
 70
     1
102
RTVSPost2010Prop56
140
1.0
102
RTVSPost2010PropOp56
 70
     1
102
RTVSPost2010Prop57
140
1.0
102
RTVSPost2010PropOp57
 70
     1
102
RTVSPropertyOp0
 70
     1
102
RTVSPropertyOp1
 70
     1
102
RTVSPropertyOp2
 70
     1
102
RTVSPropertyOp3
 70
     1
102
RTVSPropertyOp4
 70
     1
102
RTVSPropertyOp5
 70
     1
102
RTVSPropertyOp6
 70
     1
102
RTVSPropertyOp7
 70
     1
102
RTVSPropertyOp8
 70
     1
102
RTVSPropertyOp9
 70
     1
102
RTVSPropertyOp10
 70
     1
102
RTVSPropertyOp11
 70
     1
102
RTVSPropertyOp12
 70
     1
102
RTVSPropertyOp13
 70
     1
102
RTVSPropertyOp14
 70
     1
102
RTVSPropertyOp15
 70
     1
102
RTVSPropertyOp16
 70
     1
102
RTVSPropertyOp17
 70
     1
102
RTVSPropertyOp18
 70
     1
102
RTVSPropertyOp19
 70
     1
102
RTVSPropertyOp20
 70
     1
102
RTVSPropertyOp21
 70
     1
102
RTVSPropertyOp22
 70
     1
102
RTVSPropertyOp23
 70
     1
102
RTVSPropertyOp24
 70
     1
102
RTVSPropertyOp25
 70
     1
102
RTVSPropertyOp26
 70
     1
102
RTVSPropertyOp27
 70
     1
102
RTVSPropertyOp28
 70
     1
102
RTVSPropertyOp29
 70
     1
102
RTVSPropertyOp30
 70
     1
102
RTVSPropertyOp31
 70
     1
102
RTVSPropertyOp32
 70
     1
102
RTVSPropertyOp33
 70
     1
102
RTVSPropertyOp34
 70
     1
102
RTVSPropertyOp35
 70
     1
102
RTVSPropertyOp36
 70
     1
102
RTVSPropertyOp37
 70
     1
102
RTVSPropertyOp38
 70
     1
102
RTVSPropertyOp39
 70
     1
102
RTVSPropertyOp40
 70
     1
102
RTVSPropertyOp41
 70
     1
102
RTVSPropertyOp42
 70
     1
102
RTVSPropertyOp43
 70
     1
102
RTVSPropertyOp44
 70
     1
102
RTVSPropertyOp45
 70
     1
102
RTVSPropertyOp46
 70
     1
102
RTVSPropertyOp47
 70
     1
102
RTVSPropertyOp48
 70
     1
102
RTVSPropertyOp49
 70
     1
102
RTVSPropertyOp50
 70
     1
102
RTVSPropertyOp51
 70
     0
102
RTVSPropertyOp52
 70
     0
102
RTVSPropertyOp53
 70
     1
102
RTVSPropertyOp54
 70
     1
102
RTVSPropertyOp55
 70
     1
102
RTVSPropertyOp56
 70
     1
102
RTVSPropertyOp57
 70
     1
102
RTVSPropertyOp58
 70
     1
102
RTVSPropertyOp59
 70
     1
102
RTVSPropertyOp60
 70
     1
102
RTVSPropertyOp61
 70
     1
102
RTVSPropertyOp62
 70
     1
  0
XRECORD
  5
4BF5
102
{ACAD_REACTORS
330
4BF4
102
}
330
4BF4
100
AcDbXrecord
280
     1
102
RTVSPost2010Prop28
280
     0
102
RTVSPost2010PropOp28
 70
     1
102
RTVSPost2010Prop29
280
     1
102
RTVSPost2010PropOp29
 70
     1
102
RTVSPost2010Prop30
280
     1
102
RTVSPost2010PropOp30
 70
     1
102
RTVSPost2010Prop31
280
     0
102
RTVSPost2010PropOp31
 70
     1
102
RTVSPost2010Prop32
280
     0
102
RTVSPost2010PropOp32
 70
     1
102
RTVSPost2010Prop33
280
     0
102
RTVSPost2010PropOp33
 70
     1
102
RTVSPost2010Prop34
280
     0
102
RTVSPost2010PropOp34
 70
     1
102
RTVSPost2010Prop35
280
     0
102
RTVSPost2010PropOp35
 70
     1
102
RTVSPost2010Prop36
280
     0
102
RTVSPost2010PropOp36
 70
     1
102
RTVSPost2010Prop37
 90
       50
102
RTVSPost2010PropOp37
 70
     1
102
RTVSPost2010Prop38
140
0.0
102
RTVSPost2010PropOp38
 70
     1
102
RTVSPost2010Prop39
140
1.0
102
RTVSPost2010PropOp39
 70
     1
102
RTVSPost2010Prop40
 90
        0
102
RTVSPost2010PropOp40
 70
     1
102
RTVSPost2010Prop41ColorIndex
 90
       18
102
RTVSPost2010Prop41ColorRGB
 90
        0
102
RTVSPost2010PropOp41
 70
     1
102
RTVSPost2010Prop42
 90
       50
102
RTVSPost2010PropOp42
 70
     1
102
RTVSPost2010Prop43
 90
        3
102
RTVSPost2010PropOp43
 70
     1
102
RTVSPost2010Prop44ColorIndex
 90
        5
102
RTVSPost2010Prop44ColorRGB
 90
      255
102
RTVSPost2010PropOp44
 70
     1
102
RTVSPost2010Prop45
280
     0
102
RTVSPost2010PropOp45
 70
     1
102
RTVSPost2010Prop46
 90
       50
102
RTVSPost2010PropOp46
 70
     1
102
RTVSPost2010Prop47
 90
       50
102
RTVSPost2010PropOp47
 70
     1
102
RTVSPost2010Prop48
 90
       50
102
RTVSPost2010PropOp48
 70
     1
102
RTVSPost2010Prop49
280
     0
102
RTVSPost2010PropOp49
 70
     1
102
RTVSPost2010Prop50
 90
       50
102
RTVSPost2010PropOp50
 70
     1
102
RTVSPost2010Prop51ColorIndex
 90
      256
102
RTVSPost2010Prop51ColorRGB
 90
-16777216
102
RTVSPost2010PropOp51
 70
     0
102
RTVSPost2010Prop52
140
1.0
102
RTVSPost2010PropOp52
 70
     0
102
RTVSPost2010Prop53
 90
        2
102
RTVSPost2010PropOp53
 70
     1
102
RTVSPost2010Prop54
  1
strokes_ogs.tif
102
RTVSPost2010PropOp54
 70
     1
102
RTVSPost2010Prop55
280
     0
102
RTVSPost2010PropOp55
 70
     1
102
RTVSPost2010Prop56
140
1.0
102
RTVSPost2010PropOp56
 70
     1
102
RTVSPost2010Prop57
140
1.0
102
RTVSPost2010PropOp57
 70
     1
102
RTVSPropertyOp0
 70
     1
102
RTVSPropertyOp1
 70
     1
102
RTVSPropertyOp2
 70
     1
102
RTVSPropertyOp3
 70
     1
102
RTVSPropertyOp4
 70
     1
102
RTVSPropertyOp5
 70
     1
102
RTVSPropertyOp6
 70
     1
102
RTVSPropertyOp7
 70
     1
102
RTVSPropertyOp8
 70
     1
102
RTVSPropertyOp9
 70
     1
102
RTVSPropertyOp10
 70
     1
102
RTVSPropertyOp11
 70
     1
102
RTVSPropertyOp12
 70
     1
102
RTVSPropertyOp13
 70
     1
102
RTVSPropertyOp14
 70
     1
102
RTVSPropertyOp15
 70
     1
102
RTVSPropertyOp16
 70
     1
102
RTVSPropertyOp17
 70
     1
102
RTVSPropertyOp18
 70
     1
102
RTVSPropertyOp19
 70
     1
102
RTVSPropertyOp20
 70
     1
102
RTVSPropertyOp21
 70
     1
102
RTVSPropertyOp22
 70
     1
102
RTVSPropertyOp23
 70
     1
102
RTVSPropertyOp24
 70
     1
102
RTVSPropertyOp25
 70
     1
102
RTVSPropertyOp26
 70
     1
102
RTVSPropertyOp27
 70
     1
102
RTVSPropertyOp28
 70
     1
102
RTVSPropertyOp29
 70
     1
102
RTVSPropertyOp30
 70
     1
102
RTVSPropertyOp31
 70
     1
102
RTVSPropertyOp32
 70
     1
102
RTVSPropertyOp33
 70
     1
102
RTVSPropertyOp34
 70
     1
102
RTVSPropertyOp35
 70
     1
102
RTVSPropertyOp36
 70
     1
102
RTVSPropertyOp37
 70
     1
102
RTVSPropertyOp38
 70
     1
102
RTVSPropertyOp39
 70
     1
102
RTVSPropertyOp40
 70
     1
102
RTVSPropertyOp41
 70
     1
102
RTVSPropertyOp42
 70
     1
102
RTVSPropertyOp43
 70
     1
102
RTVSPropertyOp44
 70
     1
102
RTVSPropertyOp45
 70
     1
102
RTVSPropertyOp46
 70
     1
102
RTVSPropertyOp47
 70
     1
102
RTVSPropertyOp48
 70
     1
102
RTVSPropertyOp49
 70
     1
102
RTVSPropertyOp50
 70
     1
102
RTVSPropertyOp51
 70
     0
102
RTVSPropertyOp52
 70
     0
102
RTVSPropertyOp53
 70
     1
102
RTVSPropertyOp54
 70
     1
102
RTVSPropertyOp55
 70
     1
102
RTVSPropertyOp56
 70
     1
102
RTVSPropertyOp57
 70
     1
102
RTVSPropertyOp58
 70
     1
102
RTVSPropertyOp59
 70
     1
102
RTVSPropertyOp60
 70
     1
102
RTVSPropertyOp61
 70
     1
102
RTVSPropertyOp62
 70
     1
  0
XRECORD
  5
4BFD
102
{ACAD_REACTORS
330
4BFC
102
}
330
4BFC
100
AcDbXrecord
280
     1
102
RTVSPost2010Prop28
280
     0
102
RTVSPost2010PropOp28
 70
     1
102
RTVSPost2010Prop29
280
     1
102
RTVSPost2010PropOp29
 70
     1
102
RTVSPost2010Prop30
280
     1
102
RTVSPost2010PropOp30
 70
     1
102
RTVSPost2010Prop31
280
     0
102
RTVSPost2010PropOp31
 70
     1
102
RTVSPost2010Prop32
280
     0
102
RTVSPost2010PropOp32
 70
     1
102
RTVSPost2010Prop33
280
     0
102
RTVSPost2010PropOp33
 70
     1
102
RTVSPost2010Prop34
280
     0
102
RTVSPost2010PropOp34
 70
     1
102
RTVSPost2010Prop35
280
     0
102
RTVSPost2010PropOp35
 70
     1
102
RTVSPost2010Prop36
280
     0
102
RTVSPost2010PropOp36
 70
     1
102
RTVSPost2010Prop37
 90
       50
102
RTVSPost2010PropOp37
 70
     1
102
RTVSPost2010Prop38
140
0.0
102
RTVSPost2010PropOp38
 70
     1
102
RTVSPost2010Prop39
140
1.0
102
RTVSPost2010PropOp39
 70
     1
102
RTVSPost2010Prop40
 90
        0
102
RTVSPost2010PropOp40
 70
     1
102
RTVSPost2010Prop41ColorIndex
 90
       18
102
RTVSPost2010Prop41ColorRGB
 90
        0
102
RTVSPost2010PropOp41
 70
     1
102
RTVSPost2010Prop42
 90
       50
102
RTVSPost2010PropOp42
 70
     1
102
RTVSPost2010Prop43
 90
        3
102
RTVSPost2010PropOp43
 70
     1
102
RTVSPost2010Prop44ColorIndex
 90
        5
102
RTVSPost2010Prop44ColorRGB
 90
      255
102
RTVSPost2010PropOp44
 70
     1
102
RTVSPost2010Prop45
280
     0
102
RTVSPost2010PropOp45
 70
     1
102
RTVSPost2010Prop46
 90
       50
102
RTVSPost2010PropOp46
 70
     1
102
RTVSPost2010Prop47
 90
       50
102
RTVSPost2010PropOp47
 70
     1
102
RTVSPost2010Prop48
 90
       50
102
RTVSPost2010PropOp48
 70
     1
102
RTVSPost2010Prop49
280
     0
102
RTVSPost2010PropOp49
 70
     1
102
RTVSPost2010Prop50
 90
       50
102
RTVSPost2010PropOp50
 70
     1
102
RTVSPost2010Prop51ColorIndex
 90
      256
102
RTVSPost2010Prop51ColorRGB
 90
-16777216
102
RTVSPost2010PropOp51
 70
     0
102
RTVSPost2010Prop52
140
1.0
102
RTVSPost2010PropOp52
 70
     0
102
RTVSPost2010Prop53
 90
        2
102
RTVSPost2010PropOp53
 70
     1
102
RTVSPost2010Prop54
  1
strokes_ogs.tif
102
RTVSPost2010PropOp54
 70
     1
102
RTVSPost2010Prop55
280
     0
102
RTVSPost2010PropOp55
 70
     1
102
RTVSPost2010Prop56
140
1.0
102
RTVSPost2010PropOp56
 70
     1
102
RTVSPost2010Prop57
140
1.0
102
RTVSPost2010PropOp57
 70
     1
102
RTVSPropertyOp0
 70
     1
102
RTVSPropertyOp1
 70
     1
102
RTVSPropertyOp2
 70
     1
102
RTVSPropertyOp3
 70
     1
102
RTVSPropertyOp4
 70
     1
102
RTVSPropertyOp5
 70
     1
102
RTVSPropertyOp6
 70
     1
102
RTVSPropertyOp7
 70
     1
102
RTVSPropertyOp8
 70
     1
102
RTVSPropertyOp9
 70
     1
102
RTVSPropertyOp10
 70
     1
102
RTVSPropertyOp11
 70
     1
102
RTVSPropertyOp12
 70
     1
102
RTVSPropertyOp13
 70
     1
102
RTVSPropertyOp14
 70
     1
102
RTVSPropertyOp15
 70
     1
102
RTVSPropertyOp16
 70
     1
102
RTVSPropertyOp17
 70
     1
102
RTVSPropertyOp18
 70
     1
102
RTVSPropertyOp19
 70
     1
102
RTVSPropertyOp20
 70
     1
102
RTVSPropertyOp21
 70
     1
102
RTVSPropertyOp22
 70
     1
102
RTVSPropertyOp23
 70
     1
102
RTVSPropertyOp24
 70
     1
102
RTVSPropertyOp25
 70
     1
102
RTVSPropertyOp26
 70
     1
102
RTVSPropertyOp27
 70
     1
102
RTVSPropertyOp28
 70
     1
102
RTVSPropertyOp29
 70
     1
102
RTVSPropertyOp30
 70
     1
102
RTVSPropertyOp31
 70
     1
102
RTVSPropertyOp32
 70
     1
102
RTVSPropertyOp33
 70
     1
102
RTVSPropertyOp34
 70
     1
102
RTVSPropertyOp35
 70
     1
102
RTVSPropertyOp36
 70
     1
102
RTVSPropertyOp37
 70
     1
102
RTVSPropertyOp38
 70
     1
102
RTVSPropertyOp39
 70
     1
102
RTVSPropertyOp40
 70
     1
102
RTVSPropertyOp41
 70
     1
102
RTVSPropertyOp42
 70
     1
102
RTVSPropertyOp43
 70
     1
102
RTVSPropertyOp44
 70
     1
102
RTVSPropertyOp45
 70
     1
102
RTVSPropertyOp46
 70
     1
102
RTVSPropertyOp47
 70
     1
102
RTVSPropertyOp48
 70
     1
102
RTVSPropertyOp49
 70
     1
102
RTVSPropertyOp50
 70
     1
102
RTVSPropertyOp51
 70
     0
102
RTVSPropertyOp52
 70
     0
102
RTVSPropertyOp53
 70
     1
102
RTVSPropertyOp54
 70
     1
102
RTVSPropertyOp55
 70
     1
102
RTVSPropertyOp56
 70
     1
102
RTVSPropertyOp57
 70
     1
102
RTVSPropertyOp58
 70
     1
102
RTVSPropertyOp59
 70
     1
102
RTVSPropertyOp60
 70
     1
102
RTVSPropertyOp61
 70
     1
102
RTVSPropertyOp62
 70
     1
  0
XRECORD
  5
4BEF
102
{ACAD_REACTORS
330
4BEE
102
}
330
4BEE
100
AcDbXrecord
280
     1
102
RTVSPost2010Prop28
280
     0
102
RTVSPost2010PropOp28
 70
     1
102
RTVSPost2010Prop29
280
     1
102
RTVSPost2010PropOp29
 70
     1
102
RTVSPost2010Prop30
280
     1
102
RTVSPost2010PropOp30
 70
     1
102
RTVSPost2010Prop31
280
     0
102
RTVSPost2010PropOp31
 70
     1
102
RTVSPost2010Prop32
280
     0
102
RTVSPost2010PropOp32
 70
     1
102
RTVSPost2010Prop33
280
     0
102
RTVSPost2010PropOp33
 70
     1
102
RTVSPost2010Prop34
280
     0
102
RTVSPost2010PropOp34
 70
     1
102
RTVSPost2010Prop35
280
     0
102
RTVSPost2010PropOp35
 70
     1
102
RTVSPost2010Prop36
280
     0
102
RTVSPost2010PropOp36
 70
     1
102
RTVSPost2010Prop37
 90
       50
102
RTVSPost2010PropOp37
 70
     1
102
RTVSPost2010Prop38
140
0.0
102
RTVSPost2010PropOp38
 70
     1
102
RTVSPost2010Prop39
140
1.0
102
RTVSPost2010PropOp39
 70
     1
102
RTVSPost2010Prop40
 90
        0
102
RTVSPost2010PropOp40
 70
     1
102
RTVSPost2010Prop41ColorIndex
 90
       18
102
RTVSPost2010Prop41ColorRGB
 90
        0
102
RTVSPost2010PropOp41
 70
     1
102
RTVSPost2010Prop42
 90
       50
102
RTVSPost2010PropOp42
 70
     1
102
RTVSPost2010Prop43
 90
        3
102
RTVSPost2010PropOp43
 70
     1
102
RTVSPost2010Prop44ColorIndex
 90
        5
102
RTVSPost2010Prop44ColorRGB
 90
      255
102
RTVSPost2010PropOp44
 70
     1
102
RTVSPost2010Prop45
280
     0
102
RTVSPost2010PropOp45
 70
     1
102
RTVSPost2010Prop46
 90
       50
102
RTVSPost2010PropOp46
 70
     1
102
RTVSPost2010Prop47
 90
       50
102
RTVSPost2010PropOp47
 70
     1
102
RTVSPost2010Prop48
 90
       50
102
RTVSPost2010PropOp48
 70
     1
102
RTVSPost2010Prop49
280
     0
102
RTVSPost2010PropOp49
 70
     1
102
RTVSPost2010Prop50
 90
       50
102
RTVSPost2010PropOp50
 70
     1
102
RTVSPost2010Prop51ColorIndex
 90
      256
102
RTVSPost2010Prop51ColorRGB
 90
-16777216
102
RTVSPost2010PropOp51
 70
     0
102
RTVSPost2010Prop52
140
1.0
102
RTVSPost2010PropOp52
 70
     0
102
RTVSPost2010Prop53
 90
        2
102
RTVSPost2010PropOp53
 70
     1
102
RTVSPost2010Prop54
  1
strokes_ogs.tif
102
RTVSPost2010PropOp54
 70
     1
102
RTVSPost2010Prop55
280
     0
102
RTVSPost2010PropOp55
 70
     1
102
RTVSPost2010Prop56
140
1.0
102
RTVSPost2010PropOp56
 70
     1
102
RTVSPost2010Prop57
140
1.0
102
RTVSPost2010PropOp57
 70
     1
102
RTVSPropertyOp0
 70
     1
102
RTVSPropertyOp1
 70
     1
102
RTVSPropertyOp2
 70
     1
102
RTVSPropertyOp3
 70
     1
102
RTVSPropertyOp4
 70
     1
102
RTVSPropertyOp5
 70
     1
102
RTVSPropertyOp6
 70
     1
102
RTVSPropertyOp7
 70
     1
102
RTVSPropertyOp8
 70
     1
102
RTVSPropertyOp9
 70
     1
102
RTVSPropertyOp10
 70
     1
102
RTVSPropertyOp11
 70
     1
102
RTVSPropertyOp12
 70
     1
102
RTVSPropertyOp13
 70
     1
102
RTVSPropertyOp14
 70
     1
102
RTVSPropertyOp15
 70
     1
102
RTVSPropertyOp16
 70
     1
102
RTVSPropertyOp17
 70
     1
102
RTVSPropertyOp18
 70
     1
102
RTVSPropertyOp19
 70
     1
102
RTVSPropertyOp20
 70
     1
102
RTVSPropertyOp21
 70
     1
102
RTVSPropertyOp22
 70
     1
102
RTVSPropertyOp23
 70
     1
102
RTVSPropertyOp24
 70
     1
102
RTVSPropertyOp25
 70
     1
102
RTVSPropertyOp26
 70
     1
102
RTVSPropertyOp27
 70
     1
102
RTVSPropertyOp28
 70
     1
102
RTVSPropertyOp29
 70
     1
102
RTVSPropertyOp30
 70
     1
102
RTVSPropertyOp31
 70
     1
102
RTVSPropertyOp32
 70
     1
102
RTVSPropertyOp33
 70
     1
102
RTVSPropertyOp34
 70
     1
102
RTVSPropertyOp35
 70
     1
102
RTVSPropertyOp36
 70
     1
102
RTVSPropertyOp37
 70
     1
102
RTVSPropertyOp38
 70
     1
102
RTVSPropertyOp39
 70
     1
102
RTVSPropertyOp40
 70
     1
102
RTVSPropertyOp41
 70
     1
102
RTVSPropertyOp42
 70
     1
102
RTVSPropertyOp43
 70
     1
102
RTVSPropertyOp44
 70
     1
102
RTVSPropertyOp45
 70
     1
102
RTVSPropertyOp46
 70
     1
102
RTVSPropertyOp47
 70
     1
102
RTVSPropertyOp48
 70
     1
102
RTVSPropertyOp49
 70
     1
102
RTVSPropertyOp50
 70
     1
102
RTVSPropertyOp51
 70
     0
102
RTVSPropertyOp52
 70
     0
102
RTVSPropertyOp53
 70
     1
102
RTVSPropertyOp54
 70
     1
102
RTVSPropertyOp55
 70
     1
102
RTVSPropertyOp56
 70
     1
102
RTVSPropertyOp57
 70
     1
102
RTVSPropertyOp58
 70
     1
102
RTVSPropertyOp59
 70
     1
102
RTVSPropertyOp60
 70
     1
102
RTVSPropertyOp61
 70
     1
102
RTVSPropertyOp62
 70
     1
  0
XRECORD
  5
4BF3
102
{ACAD_REACTORS
330
4BF2
102
}
330
4BF2
100
AcDbXrecord
280
     1
102
RTVSPost2010Prop28
280
     0
102
RTVSPost2010PropOp28
 70
     1
102
RTVSPost2010Prop29
280
     1
102
RTVSPost2010PropOp29
 70
     1
102
RTVSPost2010Prop30
280
     1
102
RTVSPost2010PropOp30
 70
     1
102
RTVSPost2010Prop31
280
     0
102
RTVSPost2010PropOp31
 70
     1
102
RTVSPost2010Prop32
280
     0
102
RTVSPost2010PropOp32
 70
     1
102
RTVSPost2010Prop33
280
     0
102
RTVSPost2010PropOp33
 70
     1
102
RTVSPost2010Prop34
280
     0
102
RTVSPost2010PropOp34
 70
     1
102
RTVSPost2010Prop35
280
     0
102
RTVSPost2010PropOp35
 70
     1
102
RTVSPost2010Prop36
280
     0
102
RTVSPost2010PropOp36
 70
     1
102
RTVSPost2010Prop37
 90
       50
102
RTVSPost2010PropOp37
 70
     1
102
RTVSPost2010Prop38
140
0.0
102
RTVSPost2010PropOp38
 70
     1
102
RTVSPost2010Prop39
140
1.0
102
RTVSPost2010PropOp39
 70
     1
102
RTVSPost2010Prop40
 90
        0
102
RTVSPost2010PropOp40
 70
     1
102
RTVSPost2010Prop41ColorIndex
 90
       18
102
RTVSPost2010Prop41ColorRGB
 90
        0
102
RTVSPost2010PropOp41
 70
     1
102
RTVSPost2010Prop42
 90
       50
102
RTVSPost2010PropOp42
 70
     1
102
RTVSPost2010Prop43
 90
        3
102
RTVSPost2010PropOp43
 70
     1
102
RTVSPost2010Prop44ColorIndex
 90
        5
102
RTVSPost2010Prop44ColorRGB
 90
      255
102
RTVSPost2010PropOp44
 70
     1
102
RTVSPost2010Prop45
280
     0
102
RTVSPost2010PropOp45
 70
     1
102
RTVSPost2010Prop46
 90
       50
102
RTVSPost2010PropOp46
 70
     1
102
RTVSPost2010Prop47
 90
       50
102
RTVSPost2010PropOp47
 70
     1
102
RTVSPost2010Prop48
 90
       50
102
RTVSPost2010PropOp48
 70
     1
102
RTVSPost2010Prop49
280
     0
102
RTVSPost2010PropOp49
 70
     1
102
RTVSPost2010Prop50
 90
       50
102
RTVSPost2010PropOp50
 70
     1
102
RTVSPost2010Prop51ColorIndex
 90
      256
102
RTVSPost2010Prop51ColorRGB
 90
-16777216
102
RTVSPost2010PropOp51
 70
     0
102
RTVSPost2010Prop52
140
1.0
102
RTVSPost2010PropOp52
 70
     0
102
RTVSPost2010Prop53
 90
        2
102
RTVSPost2010PropOp53
 70
     1
102
RTVSPost2010Prop54
  1
strokes_ogs.tif
102
RTVSPost2010PropOp54
 70
     1
102
RTVSPost2010Prop55
280
     0
102
RTVSPost2010PropOp55
 70
     1
102
RTVSPost2010Prop56
140
1.0
102
RTVSPost2010PropOp56
 70
     1
102
RTVSPost2010Prop57
140
1.0
102
RTVSPost2010PropOp57
 70
     1
102
RTVSPropertyOp0
 70
     1
102
RTVSPropertyOp1
 70
     1
102
RTVSPropertyOp2
 70
     1
102
RTVSPropertyOp3
 70
     1
102
RTVSPropertyOp4
 70
     1
102
RTVSPropertyOp5
 70
     1
102
RTVSPropertyOp6
 70
     1
102
RTVSPropertyOp7
 70
     1
102
RTVSPropertyOp8
 70
     1
102
RTVSPropertyOp9
 70
     1
102
RTVSPropertyOp10
 70
     1
102
RTVSPropertyOp11
 70
     1
102
RTVSPropertyOp12
 70
     1
102
RTVSPropertyOp13
 70
     1
102
RTVSPropertyOp14
 70
     1
102
RTVSPropertyOp15
 70
     1
102
RTVSPropertyOp16
 70
     1
102
RTVSPropertyOp17
 70
     1
102
RTVSPropertyOp18
 70
     1
102
RTVSPropertyOp19
 70
     1
102
RTVSPropertyOp20
 70
     1
102
RTVSPropertyOp21
 70
     1
102
RTVSPropertyOp22
 70
     1
102
RTVSPropertyOp23
 70
     1
102
RTVSPropertyOp24
 70
     1
102
RTVSPropertyOp25
 70
     1
102
RTVSPropertyOp26
 70
     1
102
RTVSPropertyOp27
 70
     1
102
RTVSPropertyOp28
 70
     1
102
RTVSPropertyOp29
 70
     1
102
RTVSPropertyOp30
 70
     1
102
RTVSPropertyOp31
 70
     1
102
RTVSPropertyOp32
 70
     1
102
RTVSPropertyOp33
 70
     1
102
RTVSPropertyOp34
 70
     1
102
RTVSPropertyOp35
 70
     1
102
RTVSPropertyOp36
 70
     1
102
RTVSPropertyOp37
 70
     1
102
RTVSPropertyOp38
 70
     1
102
RTVSPropertyOp39
 70
     1
102
RTVSPropertyOp40
 70
     1
102
RTVSPropertyOp41
 70
     1
102
RTVSPropertyOp42
 70
     1
102
RTVSPropertyOp43
 70
     1
102
RTVSPropertyOp44
 70
     1
102
RTVSPropertyOp45
 70
     1
102
RTVSPropertyOp46
 70
     1
102
RTVSPropertyOp47
 70
     1
102
RTVSPropertyOp48
 70
     1
102
RTVSPropertyOp49
 70
     1
102
RTVSPropertyOp50
 70
     1
102
RTVSPropertyOp51
 70
     0
102
RTVSPropertyOp52
 70
     0
102
RTVSPropertyOp53
 70
     1
102
RTVSPropertyOp54
 70
     1
102
RTVSPropertyOp55
 70
     1
102
RTVSPropertyOp56
 70
     1
102
RTVSPropertyOp57
 70
     1
102
RTVSPropertyOp58
 70
     1
102
RTVSPropertyOp59
 70
     1
102
RTVSPropertyOp60
 70
     1
102
RTVSPropertyOp61
 70
     1
102
RTVSPropertyOp62
 70
     1
  0
XRECORD
  5
4C11
102
{ACAD_REACTORS
330
4C10
102
}
330
4C10
100
AcDbXrecord
280
     1
102
RTVSPost2010Prop28
280
     0
102
RTVSPost2010PropOp28
 70
     0
102
RTVSPost2010Prop29
280
     1
102
RTVSPost2010PropOp29
 70
     0
102
RTVSPost2010Prop30
280
     1
102
RTVSPost2010PropOp30
 70
     0
102
RTVSPost2010Prop31
280
     0
102
RTVSPost2010PropOp31
 70
     0
102
RTVSPost2010Prop32
280
     0
102
RTVSPost2010PropOp32
 70
     0
102
RTVSPost2010Prop33
280
     0
102
RTVSPost2010PropOp33
 70
     0
102
RTVSPost2010Prop34
280
     0
102
RTVSPost2010PropOp34
 70
     0
102
RTVSPost2010Prop35
280
     0
102
RTVSPost2010PropOp35
 70
     0
102
RTVSPost2010Prop36
280
     0
102
RTVSPost2010PropOp36
 70
     0
102
RTVSPost2010Prop37
 90
       50
102
RTVSPost2010PropOp37
 70
     0
102
RTVSPost2010Prop38
140
0.0
102
RTVSPost2010PropOp38
 70
     0
102
RTVSPost2010Prop39
140
1.0
102
RTVSPost2010PropOp39
 70
     0
102
RTVSPost2010Prop40
 90
        0
102
RTVSPost2010PropOp40
 70
     0
102
RTVSPost2010Prop41ColorIndex
 90
       18
102
RTVSPost2010Prop41ColorRGB
 90
        0
102
RTVSPost2010PropOp41
 70
     0
102
RTVSPost2010Prop42
 90
       50
102
RTVSPost2010PropOp42
 70
     0
102
RTVSPost2010Prop43
 90
        3
102
RTVSPost2010PropOp43
 70
     0
102
RTVSPost2010Prop44ColorIndex
 90
        5
102
RTVSPost2010Prop44ColorRGB
 90
      255
102
RTVSPost2010PropOp44
 70
     0
102
RTVSPost2010Prop45
280
     0
102
RTVSPost2010PropOp45
 70
     0
102
RTVSPost2010Prop46
 90
       50
102
RTVSPost2010PropOp46
 70
     0
102
RTVSPost2010Prop47
 90
       50
102
RTVSPost2010PropOp47
 70
     0
102
RTVSPost2010Prop48
 90
       50
102
RTVSPost2010PropOp48
 70
     0
102
RTVSPost2010Prop49
280
     0
102
RTVSPost2010PropOp49
 70
     0
102
RTVSPost2010Prop50
 90
       50
102
RTVSPost2010PropOp50
 70
     0
102
RTVSPost2010Prop51ColorIndex
 90
      256
102
RTVSPost2010Prop51ColorRGB
 90
-16777216
102
RTVSPost2010PropOp51
 70
     0
102
RTVSPost2010Prop52
140
1.0
102
RTVSPost2010PropOp52
 70
     0
102
RTVSPost2010Prop53
 90
        2
102
RTVSPost2010PropOp53
 70
     0
102
RTVSPost2010Prop54
  1
strokes_ogs.tif
102
RTVSPost2010PropOp54
 70
     0
102
RTVSPost2010Prop55
280
     0
102
RTVSPost2010PropOp55
 70
     0
102
RTVSPost2010Prop56
140
1.0
102
RTVSPost2010PropOp56
 70
     0
102
RTVSPost2010Prop57
140
1.0
102
RTVSPost2010PropOp57
 70
     0
102
RTVSPropertyOp0
 70
     0
102
RTVSPropertyOp1
 70
     0
102
RTVSPropertyOp2
 70
     0
102
RTVSPropertyOp3
 70
     0
102
RTVSPropertyOp4
 70
     0
102
RTVSPropertyOp5
 70
     0
102
RTVSPropertyOp6
 70
     0
102
RTVSPropertyOp7
 70
     0
102
RTVSPropertyOp8
 70
     0
102
RTVSPropertyOp9
 70
     0
102
RTVSPropertyOp10
 70
     0
102
RTVSPropertyOp11
 70
     0
102
RTVSPropertyOp12
 70
     0
102
RTVSPropertyOp13
 70
     0
102
RTVSPropertyOp14
 70
     2
102
RTVSPropertyOp15
 70
     0
102
RTVSPropertyOp16
 70
     0
102
RTVSPropertyOp17
 70
     0
102
RTVSPropertyOp18
 70
     0
102
RTVSPropertyOp19
 70
     0
102
RTVSPropertyOp20
 70
     0
102
RTVSPropertyOp21
 70
     0
102
RTVSPropertyOp22
 70
     0
102
RTVSPropertyOp23
 70
     0
102
RTVSPropertyOp24
 70
     0
102
RTVSPropertyOp25
 70
     0
102
RTVSPropertyOp26
 70
     0
102
RTVSPropertyOp27
 70
     0
102
RTVSPropertyOp28
 70
     0
102
RTVSPropertyOp29
 70
     0
102
RTVSPropertyOp30
 70
     0
102
RTVSPropertyOp31
 70
     0
102
RTVSPropertyOp32
 70
     0
102
RTVSPropertyOp33
 70
     0
102
RTVSPropertyOp34
 70
     0
102
RTVSPropertyOp35
 70
     0
102
RTVSPropertyOp36
 70
     0
102
RTVSPropertyOp37
 70
     0
102
RTVSPropertyOp38
 70
     0
102
RTVSPropertyOp39
 70
     0
102
RTVSPropertyOp40
 70
     0
102
RTVSPropertyOp41
 70
     0
102
RTVSPropertyOp42
 70
     0
102
RTVSPropertyOp43
 70
     0
102
RTVSPropertyOp44
 70
     0
102
RTVSPropertyOp45
 70
     0
102
RTVSPropertyOp46
 70
     0
102
RTVSPropertyOp47
 70
     0
102
RTVSPropertyOp48
 70
     0
102
RTVSPropertyOp49
 70
     0
102
RTVSPropertyOp50
 70
     0
102
RTVSPropertyOp51
 70
     0
102
RTVSPropertyOp52
 70
     0
102
RTVSPropertyOp53
 70
     0
102
RTVSPropertyOp54
 70
     0
102
RTVSPropertyOp55
 70
     0
102
RTVSPropertyOp56
 70
     0
102
RTVSPropertyOp57
 70
     0
102
RTVSPropertyOp58
 70
     1
102
RTVSPropertyOp59
 70
     1
102
RTVSPropertyOp60
 70
     1
102
RTVSPropertyOp61
 70
     1
102
RTVSPropertyOp62
 70
     1
  0
XRECORD
  5
4BFB
102
{ACAD_REACTORS
330
4BFA
102
}
330
4BFA
100
AcDbXrecord
280
     1
102
RTVSPost2010Prop28
280
     0
102
RTVSPost2010PropOp28
 70
     1
102
RTVSPost2010Prop29
280
     1
102
RTVSPost2010PropOp29
 70
     1
102
RTVSPost2010Prop30
280
     1
102
RTVSPost2010PropOp30
 70
     1
102
RTVSPost2010Prop31
280
     0
102
RTVSPost2010PropOp31
 70
     1
102
RTVSPost2010Prop32
280
     0
102
RTVSPost2010PropOp32
 70
     1
102
RTVSPost2010Prop33
280
     0
102
RTVSPost2010PropOp33
 70
     1
102
RTVSPost2010Prop34
280
     0
102
RTVSPost2010PropOp34
 70
     1
102
RTVSPost2010Prop35
280
     0
102
RTVSPost2010PropOp35
 70
     1
102
RTVSPost2010Prop36
280
     0
102
RTVSPost2010PropOp36
 70
     1
102
RTVSPost2010Prop37
 90
       50
102
RTVSPost2010PropOp37
 70
     1
102
RTVSPost2010Prop38
140
0.0
102
RTVSPost2010PropOp38
 70
     1
102
RTVSPost2010Prop39
140
1.0
102
RTVSPost2010PropOp39
 70
     1
102
RTVSPost2010Prop40
 90
        0
102
RTVSPost2010PropOp40
 70
     1
102
RTVSPost2010Prop41ColorIndex
 90
       18
102
RTVSPost2010Prop41ColorRGB
 90
        0
102
RTVSPost2010PropOp41
 70
     1
102
RTVSPost2010Prop42
 90
       50
102
RTVSPost2010PropOp42
 70
     1
102
RTVSPost2010Prop43
 90
        3
102
RTVSPost2010PropOp43
 70
     1
102
RTVSPost2010Prop44ColorIndex
 90
        5
102
RTVSPost2010Prop44ColorRGB
 90
      255
102
RTVSPost2010PropOp44
 70
     1
102
RTVSPost2010Prop45
280
     0
102
RTVSPost2010PropOp45
 70
     1
102
RTVSPost2010Prop46
 90
       50
102
RTVSPost2010PropOp46
 70
     1
102
RTVSPost2010Prop47
 90
       50
102
RTVSPost2010PropOp47
 70
     1
102
RTVSPost2010Prop48
 90
       50
102
RTVSPost2010PropOp48
 70
     1
102
RTVSPost2010Prop49
280
     0
102
RTVSPost2010PropOp49
 70
     1
102
RTVSPost2010Prop50
 90
       50
102
RTVSPost2010PropOp50
 70
     1
102
RTVSPost2010Prop51ColorIndex
 90
      256
102
RTVSPost2010Prop51ColorRGB
 90
-16777216
102
RTVSPost2010PropOp51
 70
     0
102
RTVSPost2010Prop52
140
1.0
102
RTVSPost2010PropOp52
 70
     0
102
RTVSPost2010Prop53
 90
        2
102
RTVSPost2010PropOp53
 70
     1
102
RTVSPost2010Prop54
  1
strokes_ogs.tif
102
RTVSPost2010PropOp54
 70
     1
102
RTVSPost2010Prop55
280
     0
102
RTVSPost2010PropOp55
 70
     1
102
RTVSPost2010Prop56
140
1.0
102
RTVSPost2010PropOp56
 70
     1
102
RTVSPost2010Prop57
140
1.0
102
RTVSPost2010PropOp57
 70
     1
102
RTVSPropertyOp0
 70
     1
102
RTVSPropertyOp1
 70
     1
102
RTVSPropertyOp2
 70
     1
102
RTVSPropertyOp3
 70
     1
102
RTVSPropertyOp4
 70
     1
102
RTVSPropertyOp5
 70
     1
102
RTVSPropertyOp6
 70
     1
102
RTVSPropertyOp7
 70
     1
102
RTVSPropertyOp8
 70
     1
102
RTVSPropertyOp9
 70
     1
102
RTVSPropertyOp10
 70
     1
102
RTVSPropertyOp11
 70
     1
102
RTVSPropertyOp12
 70
     1
102
RTVSPropertyOp13
 70
     1
102
RTVSPropertyOp14
 70
     1
102
RTVSPropertyOp15
 70
     1
102
RTVSPropertyOp16
 70
     1
102
RTVSPropertyOp17
 70
     1
102
RTVSPropertyOp18
 70
     1
102
RTVSPropertyOp19
 70
     1
102
RTVSPropertyOp20
 70
     1
102
RTVSPropertyOp21
 70
     1
102
RTVSPropertyOp22
 70
     1
102
RTVSPropertyOp23
 70
     1
102
RTVSPropertyOp24
 70
     1
102
RTVSPropertyOp25
 70
     1
102
RTVSPropertyOp26
 70
     1
102
RTVSPropertyOp27
 70
     1
102
RTVSPropertyOp28
 70
     1
102
RTVSPropertyOp29
 70
     1
102
RTVSPropertyOp30
 70
     1
102
RTVSPropertyOp31
 70
     1
102
RTVSPropertyOp32
 70
     1
102
RTVSPropertyOp33
 70
     1
102
RTVSPropertyOp34
 70
     1
102
RTVSPropertyOp35
 70
     1
102
RTVSPropertyOp36
 70
     1
102
RTVSPropertyOp37
 70
     1
102
RTVSPropertyOp38
 70
     1
102
RTVSPropertyOp39
 70
     1
102
RTVSPropertyOp40
 70
     1
102
RTVSPropertyOp41
 70
     1
102
RTVSPropertyOp42
 70
     1
102
RTVSPropertyOp43
 70
     1
102
RTVSPropertyOp44
 70
     1
102
RTVSPropertyOp45
 70
     1
102
RTVSPropertyOp46
 70
     1
102
RTVSPropertyOp47
 70
     1
102
RTVSPropertyOp48
 70
     1
102
RTVSPropertyOp49
 70
     1
102
RTVSPropertyOp50
 70
     1
102
RTVSPropertyOp51
 70
     0
102
RTVSPropertyOp52
 70
     0
102
RTVSPropertyOp53
 70
     1
102
RTVSPropertyOp54
 70
     1
102
RTVSPropertyOp55
 70
     1
102
RTVSPropertyOp56
 70
     1
102
RTVSPropertyOp57
 70
     1
102
RTVSPropertyOp58
 70
     1
102
RTVSPropertyOp59
 70
     1
102
RTVSPropertyOp60
 70
     1
102
RTVSPropertyOp61
 70
     1
102
RTVSPropertyOp62
 70
     1
  0
XRECORD
  5
4BDF
102
{ACAD_REACTORS
330
4BDE
102
}
330
4BDE
100
AcDbXrecord
280
     1
102
RTVSPost2010Prop28
280
     0
102
RTVSPost2010PropOp28
 70
     1
102
RTVSPost2010Prop29
280
     1
102
RTVSPost2010PropOp29
 70
     1
102
RTVSPost2010Prop30
280
     1
102
RTVSPost2010PropOp30
 70
     1
102
RTVSPost2010Prop31
280
     0
102
RTVSPost2010PropOp31
 70
     1
102
RTVSPost2010Prop32
280
     0
102
RTVSPost2010PropOp32
 70
     1
102
RTVSPost2010Prop33
280
     0
102
RTVSPost2010PropOp33
 70
     1
102
RTVSPost2010Prop34
280
     0
102
RTVSPost2010PropOp34
 70
     1
102
RTVSPost2010Prop35
280
     0
102
RTVSPost2010PropOp35
 70
     1
102
RTVSPost2010Prop36
280
     0
102
RTVSPost2010PropOp36
 70
     1
102
RTVSPost2010Prop37
 90
       50
102
RTVSPost2010PropOp37
 70
     1
102
RTVSPost2010Prop38
140
0.0
102
RTVSPost2010PropOp38
 70
     1
102
RTVSPost2010Prop39
140
1.0
102
RTVSPost2010PropOp39
 70
     1
102
RTVSPost2010Prop40
 90
        0
102
RTVSPost2010PropOp40
 70
     1
102
RTVSPost2010Prop41ColorIndex
 90
       18
102
RTVSPost2010Prop41ColorRGB
 90
        0
102
RTVSPost2010PropOp41
 70
     1
102
RTVSPost2010Prop42
 90
       50
102
RTVSPost2010PropOp42
 70
     1
102
RTVSPost2010Prop43
 90
        3
102
RTVSPost2010PropOp43
 70
     1
102
RTVSPost2010Prop44ColorIndex
 90
        5
102
RTVSPost2010Prop44ColorRGB
 90
      255
102
RTVSPost2010PropOp44
 70
     1
102
RTVSPost2010Prop45
280
     0
102
RTVSPost2010PropOp45
 70
     1
102
RTVSPost2010Prop46
 90
       50
102
RTVSPost2010PropOp46
 70
     1
102
RTVSPost2010Prop47
 90
       50
102
RTVSPost2010PropOp47
 70
     1
102
RTVSPost2010Prop48
 90
       50
102
RTVSPost2010PropOp48
 70
     1
102
RTVSPost2010Prop49
280
     0
102
RTVSPost2010PropOp49
 70
     1
102
RTVSPost2010Prop50
 90
       50
102
RTVSPost2010PropOp50
 70
     1
102
RTVSPost2010Prop51ColorIndex
 90
      256
102
RTVSPost2010Prop51ColorRGB
 90
-16777216
102
RTVSPost2010PropOp51
 70
     0
102
RTVSPost2010Prop52
140
1.0
102
RTVSPost2010PropOp52
 70
     0
102
RTVSPost2010Prop53
 90
        2
102
RTVSPost2010PropOp53
 70
     1
102
RTVSPost2010Prop54
  1
strokes_ogs.tif
102
RTVSPost2010PropOp54
 70
     1
102
RTVSPost2010Prop55
280
     0
102
RTVSPost2010PropOp55
 70
     1
102
RTVSPost2010Prop56
140
1.0
102
RTVSPost2010PropOp56
 70
     1
102
RTVSPost2010Prop57
140
1.0
102
RTVSPost2010PropOp57
 70
     1
102
RTVSPropertyOp0
 70
     1
102
RTVSPropertyOp1
 70
     1
102
RTVSPropertyOp2
 70
     1
102
RTVSPropertyOp3
 70
     1
102
RTVSPropertyOp4
 70
     1
102
RTVSPropertyOp5
 70
     1
102
RTVSPropertyOp6
 70
     1
102
RTVSPropertyOp7
 70
     1
102
RTVSPropertyOp8
 70
     1
102
RTVSPropertyOp9
 70
     1
102
RTVSPropertyOp10
 70
     1
102
RTVSPropertyOp11
 70
     1
102
RTVSPropertyOp12
 70
     1
102
RTVSPropertyOp13
 70
     1
102
RTVSPropertyOp14
 70
     1
102
RTVSPropertyOp15
 70
     1
102
RTVSPropertyOp16
 70
     1
102
RTVSPropertyOp17
 70
     1
102
RTVSPropertyOp18
 70
     1
102
RTVSPropertyOp19
 70
     1
102
RTVSPropertyOp20
 70
     1
102
RTVSPropertyOp21
 70
     1
102
RTVSPropertyOp22
 70
     1
102
RTVSPropertyOp23
 70
     1
102
RTVSPropertyOp24
 70
     1
102
RTVSPropertyOp25
 70
     1
102
RTVSPropertyOp26
 70
     1
102
RTVSPropertyOp27
 70
     1
102
RTVSPropertyOp28
 70
     1
102
RTVSPropertyOp29
 70
     1
102
RTVSPropertyOp30
 70
     1
102
RTVSPropertyOp31
 70
     1
102
RTVSPropertyOp32
 70
     1
102
RTVSPropertyOp33
 70
     1
102
RTVSPropertyOp34
 70
     1
102
RTVSPropertyOp35
 70
     1
102
RTVSPropertyOp36
 70
     1
102
RTVSPropertyOp37
 70
     1
102
RTVSPropertyOp38
 70
     1
102
RTVSPropertyOp39
 70
     1
102
RTVSPropertyOp40
 70
     1
102
RTVSPropertyOp41
 70
     1
102
RTVSPropertyOp42
 70
     1
102
RTVSPropertyOp43
 70
     1
102
RTVSPropertyOp44
 70
     1
102
RTVSPropertyOp45
 70
     1
102
RTVSPropertyOp46
 70
     1
102
RTVSPropertyOp47
 70
     1
102
RTVSPropertyOp48
 70
     1
102
RTVSPropertyOp49
 70
     1
102
RTVSPropertyOp50
 70
     1
102
RTVSPropertyOp51
 70
     0
102
RTVSPropertyOp52
 70
     0
102
RTVSPropertyOp53
 70
     1
102
RTVSPropertyOp54
 70
     1
102
RTVSPropertyOp55
 70
     1
102
RTVSPropertyOp56
 70
     1
102
RTVSPropertyOp57
 70
     1
102
RTVSPropertyOp58
 70
     1
102
RTVSPropertyOp59
 70
     1
102
RTVSPropertyOp60
 70
     1
102
RTVSPropertyOp61
 70
     1
102
RTVSPropertyOp62
 70
     1
  0
XRECORD
  5
4BE1
102
{ACAD_REACTORS
330
4BE0
102
}
330
4BE0
100
AcDbXrecord
280
     1
102
RTVSPost2010Prop28
280
     0
102
RTVSPost2010PropOp28
 70
     1
102
RTVSPost2010Prop29
280
     1
102
RTVSPost2010PropOp29
 70
     1
102
RTVSPost2010Prop30
280
     1
102
RTVSPost2010PropOp30
 70
     1
102
RTVSPost2010Prop31
280
     0
102
RTVSPost2010PropOp31
 70
     1
102
RTVSPost2010Prop32
280
     0
102
RTVSPost2010PropOp32
 70
     1
102
RTVSPost2010Prop33
280
     0
102
RTVSPost2010PropOp33
 70
     1
102
RTVSPost2010Prop34
280
     0
102
RTVSPost2010PropOp34
 70
     1
102
RTVSPost2010Prop35
280
     0
102
RTVSPost2010PropOp35
 70
     1
102
RTVSPost2010Prop36
280
     0
102
RTVSPost2010PropOp36
 70
     1
102
RTVSPost2010Prop37
 90
       50
102
RTVSPost2010PropOp37
 70
     1
102
RTVSPost2010Prop38
140
0.0
102
RTVSPost2010PropOp38
 70
     1
102
RTVSPost2010Prop39
140
1.0
102
RTVSPost2010PropOp39
 70
     1
102
RTVSPost2010Prop40
 90
        0
102
RTVSPost2010PropOp40
 70
     1
102
RTVSPost2010Prop41ColorIndex
 90
       18
102
RTVSPost2010Prop41ColorRGB
 90
        0
102
RTVSPost2010PropOp41
 70
     1
102
RTVSPost2010Prop42
 90
       50
102
RTVSPost2010PropOp42
 70
     1
102
RTVSPost2010Prop43
 90
        3
102
RTVSPost2010PropOp43
 70
     1
102
RTVSPost2010Prop44ColorIndex
 90
        5
102
RTVSPost2010Prop44ColorRGB
 90
      255
102
RTVSPost2010PropOp44
 70
     1
102
RTVSPost2010Prop45
280
     0
102
RTVSPost2010PropOp45
 70
     1
102
RTVSPost2010Prop46
 90
       50
102
RTVSPost2010PropOp46
 70
     1
102
RTVSPost2010Prop47
 90
       50
102
RTVSPost2010PropOp47
 70
     1
102
RTVSPost2010Prop48
 90
       50
102
RTVSPost2010PropOp48
 70
     1
102
RTVSPost2010Prop49
280
     0
102
RTVSPost2010PropOp49
 70
     1
102
RTVSPost2010Prop50
 90
       50
102
RTVSPost2010PropOp50
 70
     1
102
RTVSPost2010Prop51ColorIndex
 90
      256
102
RTVSPost2010Prop51ColorRGB
 90
-16777216
102
RTVSPost2010PropOp51
 70
     0
102
RTVSPost2010Prop52
140
1.0
102
RTVSPost2010PropOp52
 70
     0
102
RTVSPost2010Prop53
 90
        2
102
RTVSPost2010PropOp53
 70
     1
102
RTVSPost2010Prop54
  1
strokes_ogs.tif
102
RTVSPost2010PropOp54
 70
     1
102
RTVSPost2010Prop55
280
     0
102
RTVSPost2010PropOp55
 70
     1
102
RTVSPost2010Prop56
140
1.0
102
RTVSPost2010PropOp56
 70
     1
102
RTVSPost2010Prop57
140
1.0
102
RTVSPost2010PropOp57
 70
     1
102
RTVSPropertyOp0
 70
     1
102
RTVSPropertyOp1
 70
     1
102
RTVSPropertyOp2
 70
     1
102
RTVSPropertyOp3
 70
     1
102
RTVSPropertyOp4
 70
     1
102
RTVSPropertyOp5
 70
     1
102
RTVSPropertyOp6
 70
     1
102
RTVSPropertyOp7
 70
     1
102
RTVSPropertyOp8
 70
     1
102
RTVSPropertyOp9
 70
     1
102
RTVSPropertyOp10
 70
     1
102
RTVSPropertyOp11
 70
     1
102
RTVSPropertyOp12
 70
     1
102
RTVSPropertyOp13
 70
     1
102
RTVSPropertyOp14
 70
     1
102
RTVSPropertyOp15
 70
     1
102
RTVSPropertyOp16
 70
     1
102
RTVSPropertyOp17
 70
     1
102
RTVSPropertyOp18
 70
     1
102
RTVSPropertyOp19
 70
     1
102
RTVSPropertyOp20
 70
     1
102
RTVSPropertyOp21
 70
     1
102
RTVSPropertyOp22
 70
     1
102
RTVSPropertyOp23
 70
     1
102
RTVSPropertyOp24
 70
     1
102
RTVSPropertyOp25
 70
     1
102
RTVSPropertyOp26
 70
     1
102
RTVSPropertyOp27
 70
     1
102
RTVSPropertyOp28
 70
     1
102
RTVSPropertyOp29
 70
     1
102
RTVSPropertyOp30
 70
     1
102
RTVSPropertyOp31
 70
     1
102
RTVSPropertyOp32
 70
     1
102
RTVSPropertyOp33
 70
     1
102
RTVSPropertyOp34
 70
     1
102
RTVSPropertyOp35
 70
     1
102
RTVSPropertyOp36
 70
     1
102
RTVSPropertyOp37
 70
     1
102
RTVSPropertyOp38
 70
     1
102
RTVSPropertyOp39
 70
     1
102
RTVSPropertyOp40
 70
     1
102
RTVSPropertyOp41
 70
     1
102
RTVSPropertyOp42
 70
     1
102
RTVSPropertyOp43
 70
     1
102
RTVSPropertyOp44
 70
     1
102
RTVSPropertyOp45
 70
     1
102
RTVSPropertyOp46
 70
     1
102
RTVSPropertyOp47
 70
     1
102
RTVSPropertyOp48
 70
     1
102
RTVSPropertyOp49
 70
     1
102
RTVSPropertyOp50
 70
     1
102
RTVSPropertyOp51
 70
     0
102
RTVSPropertyOp52
 70
     0
102
RTVSPropertyOp53
 70
     1
102
RTVSPropertyOp54
 70
     1
102
RTVSPropertyOp55
 70
     1
102
RTVSPropertyOp56
 70
     1
102
RTVSPropertyOp57
 70
     1
102
RTVSPropertyOp58
 70
     1
102
RTVSPropertyOp59
 70
     1
102
RTVSPropertyOp60
 70
     1
102
RTVSPropertyOp61
 70
     1
102
RTVSPropertyOp62
 70
     1
  0
XRECORD
  5
4BE3
102
{ACAD_REACTORS
330
4BE2
102
}
330
4BE2
100
AcDbXrecord
280
     1
102
RTVSPost2010Prop28
280
     0
102
RTVSPost2010PropOp28
 70
     1
102
RTVSPost2010Prop29
280
     1
102
RTVSPost2010PropOp29
 70
     1
102
RTVSPost2010Prop30
280
     1
102
RTVSPost2010PropOp30
 70
     1
102
RTVSPost2010Prop31
280
     0
102
RTVSPost2010PropOp31
 70
     1
102
RTVSPost2010Prop32
280
     0
102
RTVSPost2010PropOp32
 70
     1
102
RTVSPost2010Prop33
280
     0
102
RTVSPost2010PropOp33
 70
     1
102
RTVSPost2010Prop34
280
     0
102
RTVSPost2010PropOp34
 70
     1
102
RTVSPost2010Prop35
280
     0
102
RTVSPost2010PropOp35
 70
     1
102
RTVSPost2010Prop36
280
     0
102
RTVSPost2010PropOp36
 70
     1
102
RTVSPost2010Prop37
 90
       50
102
RTVSPost2010PropOp37
 70
     1
102
RTVSPost2010Prop38
140
0.0
102
RTVSPost2010PropOp38
 70
     1
102
RTVSPost2010Prop39
140
1.0
102
RTVSPost2010PropOp39
 70
     1
102
RTVSPost2010Prop40
 90
        0
102
RTVSPost2010PropOp40
 70
     1
102
RTVSPost2010Prop41ColorIndex
 90
       18
102
RTVSPost2010Prop41ColorRGB
 90
        0
102
RTVSPost2010PropOp41
 70
     1
102
RTVSPost2010Prop42
 90
       50
102
RTVSPost2010PropOp42
 70
     1
102
RTVSPost2010Prop43
 90
        3
102
RTVSPost2010PropOp43
 70
     1
102
RTVSPost2010Prop44ColorIndex
 90
        5
102
RTVSPost2010Prop44ColorRGB
 90
      255
102
RTVSPost2010PropOp44
 70
     1
102
RTVSPost2010Prop45
280
     0
102
RTVSPost2010PropOp45
 70
     1
102
RTVSPost2010Prop46
 90
       50
102
RTVSPost2010PropOp46
 70
     1
102
RTVSPost2010Prop47
 90
       50
102
RTVSPost2010PropOp47
 70
     1
102
RTVSPost2010Prop48
 90
       50
102
RTVSPost2010PropOp48
 70
     1
102
RTVSPost2010Prop49
280
     0
102
RTVSPost2010PropOp49
 70
     1
102
RTVSPost2010Prop50
 90
       50
102
RTVSPost2010PropOp50
 70
     1
102
RTVSPost2010Prop51ColorIndex
 90
      256
102
RTVSPost2010Prop51ColorRGB
 90
-16777216
102
RTVSPost2010PropOp51
 70
     0
102
RTVSPost2010Prop52
140
1.0
102
RTVSPost2010PropOp52
 70
     0
102
RTVSPost2010Prop53
 90
        2
102
RTVSPost2010PropOp53
 70
     1
102
RTVSPost2010Prop54
  1
strokes_ogs.tif
102
RTVSPost2010PropOp54
 70
     1
102
RTVSPost2010Prop55
280
     0
102
RTVSPost2010PropOp55
 70
     1
102
RTVSPost2010Prop56
140
1.0
102
RTVSPost2010PropOp56
 70
     1
102
RTVSPost2010Prop57
140
1.0
102
RTVSPost2010PropOp57
 70
     1
102
RTVSPropertyOp0
 70
     1
102
RTVSPropertyOp1
 70
     1
102
RTVSPropertyOp2
 70
     1
102
RTVSPropertyOp3
 70
     1
102
RTVSPropertyOp4
 70
     1
102
RTVSPropertyOp5
 70
     1
102
RTVSPropertyOp6
 70
     1
102
RTVSPropertyOp7
 70
     1
102
RTVSPropertyOp8
 70
     1
102
RTVSPropertyOp9
 70
     1
102
RTVSPropertyOp10
 70
     1
102
RTVSPropertyOp11
 70
     1
102
RTVSPropertyOp12
 70
     1
102
RTVSPropertyOp13
 70
     1
102
RTVSPropertyOp14
 70
     1
102
RTVSPropertyOp15
 70
     1
102
RTVSPropertyOp16
 70
     1
102
RTVSPropertyOp17
 70
     1
102
RTVSPropertyOp18
 70
     1
102
RTVSPropertyOp19
 70
     1
102
RTVSPropertyOp20
 70
     1
102
RTVSPropertyOp21
 70
     1
102
RTVSPropertyOp22
 70
     1
102
RTVSPropertyOp23
 70
     1
102
RTVSPropertyOp24
 70
     1
102
RTVSPropertyOp25
 70
     1
102
RTVSPropertyOp26
 70
     1
102
RTVSPropertyOp27
 70
     1
102
RTVSPropertyOp28
 70
     1
102
RTVSPropertyOp29
 70
     1
102
RTVSPropertyOp30
 70
     1
102
RTVSPropertyOp31
 70
     1
102
RTVSPropertyOp32
 70
     1
102
RTVSPropertyOp33
 70
     1
102
RTVSPropertyOp34
 70
     1
102
RTVSPropertyOp35
 70
     1
102
RTVSPropertyOp36
 70
     1
102
RTVSPropertyOp37
 70
     1
102
RTVSPropertyOp38
 70
     1
102
RTVSPropertyOp39
 70
     1
102
RTVSPropertyOp40
 70
     1
102
RTVSPropertyOp41
 70
     1
102
RTVSPropertyOp42
 70
     1
102
RTVSPropertyOp43
 70
     1
102
RTVSPropertyOp44
 70
     1
102
RTVSPropertyOp45
 70
     1
102
RTVSPropertyOp46
 70
     1
102
RTVSPropertyOp47
 70
     1
102
RTVSPropertyOp48
 70
     1
102
RTVSPropertyOp49
 70
     1
102
RTVSPropertyOp50
 70
     1
102
RTVSPropertyOp51
 70
     0
102
RTVSPropertyOp52
 70
     0
102
RTVSPropertyOp53
 70
     1
102
RTVSPropertyOp54
 70
     1
102
RTVSPropertyOp55
 70
     1
102
RTVSPropertyOp56
 70
     1
102
RTVSPropertyOp57
 70
     1
102
RTVSPropertyOp58
 70
     1
102
RTVSPropertyOp59
 70
     1
102
RTVSPropertyOp60
 70
     1
102
RTVSPropertyOp61
 70
     1
102
RTVSPropertyOp62
 70
     1
  0
XRECORD
  5
4BE5
102
{ACAD_REACTORS
330
4BE4
102
}
330
4BE4
100
AcDbXrecord
280
     1
102
RTVSPost2010Prop28
280
     0
102
RTVSPost2010PropOp28
 70
     1
102
RTVSPost2010Prop29
280
     1
102
RTVSPost2010PropOp29
 70
     1
102
RTVSPost2010Prop30
280
     1
102
RTVSPost2010PropOp30
 70
     1
102
RTVSPost2010Prop31
280
     0
102
RTVSPost2010PropOp31
 70
     1
102
RTVSPost2010Prop32
280
     0
102
RTVSPost2010PropOp32
 70
     1
102
RTVSPost2010Prop33
280
     0
102
RTVSPost2010PropOp33
 70
     1
102
RTVSPost2010Prop34
280
     0
102
RTVSPost2010PropOp34
 70
     1
102
RTVSPost2010Prop35
280
     0
102
RTVSPost2010PropOp35
 70
     1
102
RTVSPost2010Prop36
280
     0
102
RTVSPost2010PropOp36
 70
     1
102
RTVSPost2010Prop37
 90
       50
102
RTVSPost2010PropOp37
 70
     1
102
RTVSPost2010Prop38
140
0.0
102
RTVSPost2010PropOp38
 70
     1
102
RTVSPost2010Prop39
140
1.0
102
RTVSPost2010PropOp39
 70
     1
102
RTVSPost2010Prop40
 90
        0
102
RTVSPost2010PropOp40
 70
     1
102
RTVSPost2010Prop41ColorIndex
 90
       18
102
RTVSPost2010Prop41ColorRGB
 90
        0
102
RTVSPost2010PropOp41
 70
     1
102
RTVSPost2010Prop42
 90
       50
102
RTVSPost2010PropOp42
 70
     1
102
RTVSPost2010Prop43
 90
        3
102
RTVSPost2010PropOp43
 70
     1
102
RTVSPost2010Prop44ColorIndex
 90
        5
102
RTVSPost2010Prop44ColorRGB
 90
      255
102
RTVSPost2010PropOp44
 70
     1
102
RTVSPost2010Prop45
280
     0
102
RTVSPost2010PropOp45
 70
     1
102
RTVSPost2010Prop46
 90
       50
102
RTVSPost2010PropOp46
 70
     1
102
RTVSPost2010Prop47
 90
       50
102
RTVSPost2010PropOp47
 70
     1
102
RTVSPost2010Prop48
 90
       50
102
RTVSPost2010PropOp48
 70
     1
102
RTVSPost2010Prop49
280
     0
102
RTVSPost2010PropOp49
 70
     1
102
RTVSPost2010Prop50
 90
       50
102
RTVSPost2010PropOp50
 70
     1
102
RTVSPost2010Prop51ColorIndex
 90
      256
102
RTVSPost2010Prop51ColorRGB
 90
-16777216
102
RTVSPost2010PropOp51
 70
     0
102
RTVSPost2010Prop52
140
1.0
102
RTVSPost2010PropOp52
 70
     0
102
RTVSPost2010Prop53
 90
        2
102
RTVSPost2010PropOp53
 70
     1
102
RTVSPost2010Prop54
  1
strokes_ogs.tif
102
RTVSPost2010PropOp54
 70
     1
102
RTVSPost2010Prop55
280
     0
102
RTVSPost2010PropOp55
 70
     1
102
RTVSPost2010Prop56
140
1.0
102
RTVSPost2010PropOp56
 70
     1
102
RTVSPost2010Prop57
140
1.0
102
RTVSPost2010PropOp57
 70
     1
102
RTVSPropertyOp0
 70
     1
102
RTVSPropertyOp1
 70
     1
102
RTVSPropertyOp2
 70
     1
102
RTVSPropertyOp3
 70
     1
102
RTVSPropertyOp4
 70
     1
102
RTVSPropertyOp5
 70
     1
102
RTVSPropertyOp6
 70
     1
102
RTVSPropertyOp7
 70
     1
102
RTVSPropertyOp8
 70
     1
102
RTVSPropertyOp9
 70
     1
102
RTVSPropertyOp10
 70
     1
102
RTVSPropertyOp11
 70
     1
102
RTVSPropertyOp12
 70
     1
102
RTVSPropertyOp13
 70
     1
102
RTVSPropertyOp14
 70
     1
102
RTVSPropertyOp15
 70
     1
102
RTVSPropertyOp16
 70
     1
102
RTVSPropertyOp17
 70
     1
102
RTVSPropertyOp18
 70
     1
102
RTVSPropertyOp19
 70
     1
102
RTVSPropertyOp20
 70
     1
102
RTVSPropertyOp21
 70
     1
102
RTVSPropertyOp22
 70
     1
102
RTVSPropertyOp23
 70
     1
102
RTVSPropertyOp24
 70
     1
102
RTVSPropertyOp25
 70
     1
102
RTVSPropertyOp26
 70
     1
102
RTVSPropertyOp27
 70
     1
102
RTVSPropertyOp28
 70
     1
102
RTVSPropertyOp29
 70
     1
102
RTVSPropertyOp30
 70
     1
102
RTVSPropertyOp31
 70
     1
102
RTVSPropertyOp32
 70
     1
102
RTVSPropertyOp33
 70
     1
102
RTVSPropertyOp34
 70
     1
102
RTVSPropertyOp35
 70
     1
102
RTVSPropertyOp36
 70
     1
102
RTVSPropertyOp37
 70
     1
102
RTVSPropertyOp38
 70
     1
102
RTVSPropertyOp39
 70
     1
102
RTVSPropertyOp40
 70
     1
102
RTVSPropertyOp41
 70
     1
102
RTVSPropertyOp42
 70
     1
102
RTVSPropertyOp43
 70
     1
102
RTVSPropertyOp44
 70
     1
102
RTVSPropertyOp45
 70
     1
102
RTVSPropertyOp46
 70
     1
102
RTVSPropertyOp47
 70
     1
102
RTVSPropertyOp48
 70
     1
102
RTVSPropertyOp49
 70
     1
102
RTVSPropertyOp50
 70
     1
102
RTVSPropertyOp51
 70
     0
102
RTVSPropertyOp52
 70
     0
102
RTVSPropertyOp53
 70
     1
102
RTVSPropertyOp54
 70
     1
102
RTVSPropertyOp55
 70
     1
102
RTVSPropertyOp56
 70
     1
102
RTVSPropertyOp57
 70
     1
102
RTVSPropertyOp58
 70
     1
102
RTVSPropertyOp59
 70
     1
102
RTVSPropertyOp60
 70
     1
102
RTVSPropertyOp61
 70
     1
102
RTVSPropertyOp62
 70
     1
  0
XRECORD
  5
4C01
102
{ACAD_REACTORS
330
4C00
102
}
330
4C00
100
AcDbXrecord
280
     1
102
RTVSPost2010Prop28
280
     0
102
RTVSPost2010PropOp28
 70
     1
102
RTVSPost2010Prop29
280
     1
102
RTVSPost2010PropOp29
 70
     1
102
RTVSPost2010Prop30
280
     1
102
RTVSPost2010PropOp30
 70
     1
102
RTVSPost2010Prop31
280
     0
102
RTVSPost2010PropOp31
 70
     1
102
RTVSPost2010Prop32
280
     0
102
RTVSPost2010PropOp32
 70
     1
102
RTVSPost2010Prop33
280
     0
102
RTVSPost2010PropOp33
 70
     1
102
RTVSPost2010Prop34
280
     0
102
RTVSPost2010PropOp34
 70
     1
102
RTVSPost2010Prop35
280
     0
102
RTVSPost2010PropOp35
 70
     1
102
RTVSPost2010Prop36
280
     0
102
RTVSPost2010PropOp36
 70
     1
102
RTVSPost2010Prop37
 90
       50
102
RTVSPost2010PropOp37
 70
     1
102
RTVSPost2010Prop38
140
0.0
102
RTVSPost2010PropOp38
 70
     1
102
RTVSPost2010Prop39
140
1.0
102
RTVSPost2010PropOp39
 70
     1
102
RTVSPost2010Prop40
 90
        0
102
RTVSPost2010PropOp40
 70
     1
102
RTVSPost2010Prop41ColorIndex
 90
       18
102
RTVSPost2010Prop41ColorRGB
 90
        0
102
RTVSPost2010PropOp41
 70
     1
102
RTVSPost2010Prop42
 90
       50
102
RTVSPost2010PropOp42
 70
     1
102
RTVSPost2010Prop43
 90
        3
102
RTVSPost2010PropOp43
 70
     1
102
RTVSPost2010Prop44ColorIndex
 90
        5
102
RTVSPost2010Prop44ColorRGB
 90
      255
102
RTVSPost2010PropOp44
 70
     1
102
RTVSPost2010Prop45
280
     0
102
RTVSPost2010PropOp45
 70
     1
102
RTVSPost2010Prop46
 90
       50
102
RTVSPost2010PropOp46
 70
     1
102
RTVSPost2010Prop47
 90
       50
102
RTVSPost2010PropOp47
 70
     1
102
RTVSPost2010Prop48
 90
       50
102
RTVSPost2010PropOp48
 70
     1
102
RTVSPost2010Prop49
280
     0
102
RTVSPost2010PropOp49
 70
     1
102
RTVSPost2010Prop50
 90
       50
102
RTVSPost2010PropOp50
 70
     1
102
RTVSPost2010Prop51ColorIndex
 90
      256
102
RTVSPost2010Prop51ColorRGB
 90
-16777216
102
RTVSPost2010PropOp51
 70
     0
102
RTVSPost2010Prop52
140
1.0
102
RTVSPost2010PropOp52
 70
     0
102
RTVSPost2010Prop53
 90
        2
102
RTVSPost2010PropOp53
 70
     1
102
RTVSPost2010Prop54
  1
strokes_ogs.tif
102
RTVSPost2010PropOp54
 70
     1
102
RTVSPost2010Prop55
280
     0
102
RTVSPost2010PropOp55
 70
     1
102
RTVSPost2010Prop56
140
1.0
102
RTVSPost2010PropOp56
 70
     1
102
RTVSPost2010Prop57
140
1.0
102
RTVSPost2010PropOp57
 70
     1
102
RTVSPropertyOp0
 70
     1
102
RTVSPropertyOp1
 70
     1
102
RTVSPropertyOp2
 70
     1
102
RTVSPropertyOp3
 70
     1
102
RTVSPropertyOp4
 70
     1
102
RTVSPropertyOp5
 70
     1
102
RTVSPropertyOp6
 70
     1
102
RTVSPropertyOp7
 70
     1
102
RTVSPropertyOp8
 70
     1
102
RTVSPropertyOp9
 70
     1
102
RTVSPropertyOp10
 70
     1
102
RTVSPropertyOp11
 70
     1
102
RTVSPropertyOp12
 70
     1
102
RTVSPropertyOp13
 70
     1
102
RTVSPropertyOp14
 70
     1
102
RTVSPropertyOp15
 70
     1
102
RTVSPropertyOp16
 70
     1
102
RTVSPropertyOp17
 70
     1
102
RTVSPropertyOp18
 70
     1
102
RTVSPropertyOp19
 70
     1
102
RTVSPropertyOp20
 70
     1
102
RTVSPropertyOp21
 70
     1
102
RTVSPropertyOp22
 70
     1
102
RTVSPropertyOp23
 70
     1
102
RTVSPropertyOp24
 70
     1
102
RTVSPropertyOp25
 70
     1
102
RTVSPropertyOp26
 70
     1
102
RTVSPropertyOp27
 70
     1
102
RTVSPropertyOp28
 70
     1
102
RTVSPropertyOp29
 70
     1
102
RTVSPropertyOp30
 70
     1
102
RTVSPropertyOp31
 70
     1
102
RTVSPropertyOp32
 70
     1
102
RTVSPropertyOp33
 70
     1
102
RTVSPropertyOp34
 70
     1
102
RTVSPropertyOp35
 70
     1
102
RTVSPropertyOp36
 70
     1
102
RTVSPropertyOp37
 70
     1
102
RTVSPropertyOp38
 70
     1
102
RTVSPropertyOp39
 70
     1
102
RTVSPropertyOp40
 70
     1
102
RTVSPropertyOp41
 70
     1
102
RTVSPropertyOp42
 70
     1
102
RTVSPropertyOp43
 70
     1
102
RTVSPropertyOp44
 70
     1
102
RTVSPropertyOp45
 70
     1
102
RTVSPropertyOp46
 70
     1
102
RTVSPropertyOp47
 70
     1
102
RTVSPropertyOp48
 70
     1
102
RTVSPropertyOp49
 70
     1
102
RTVSPropertyOp50
 70
     1
102
RTVSPropertyOp51
 70
     0
102
RTVSPropertyOp52
 70
     0
102
RTVSPropertyOp53
 70
     1
102
RTVSPropertyOp54
 70
     1
102
RTVSPropertyOp55
 70
     1
102
RTVSPropertyOp56
 70
     1
102
RTVSPropertyOp57
 70
     1
102
RTVSPropertyOp58
 70
     1
102
RTVSPropertyOp59
 70
     1
102
RTVSPropertyOp60
 70
     1
102
RTVSPropertyOp61
 70
     1
102
RTVSPropertyOp62
 70
     1
  0
XRECORD
  5
4C0D
102
{ACAD_REACTORS
330
4C0C
102
}
330
4C0C
100
AcDbXrecord
280
     1
102
RTVSPost2010Prop28
280
     0
102
RTVSPost2010PropOp28
 70
     0
102
RTVSPost2010Prop29
280
     1
102
RTVSPost2010PropOp29
 70
     0
102
RTVSPost2010Prop30
280
     1
102
RTVSPost2010PropOp30
 70
     0
102
RTVSPost2010Prop31
280
     0
102
RTVSPost2010PropOp31
 70
     0
102
RTVSPost2010Prop32
280
     0
102
RTVSPost2010PropOp32
 70
     0
102
RTVSPost2010Prop33
280
     0
102
RTVSPost2010PropOp33
 70
     0
102
RTVSPost2010Prop34
280
     0
102
RTVSPost2010PropOp34
 70
     0
102
RTVSPost2010Prop35
280
     0
102
RTVSPost2010PropOp35
 70
     0
102
RTVSPost2010Prop36
280
     0
102
RTVSPost2010PropOp36
 70
     0
102
RTVSPost2010Prop37
 90
       50
102
RTVSPost2010PropOp37
 70
     0
102
RTVSPost2010Prop38
140
0.0
102
RTVSPost2010PropOp38
 70
     0
102
RTVSPost2010Prop39
140
1.0
102
RTVSPost2010PropOp39
 70
     0
102
RTVSPost2010Prop40
 90
        0
102
RTVSPost2010PropOp40
 70
     0
102
RTVSPost2010Prop41ColorIndex
 90
       18
102
RTVSPost2010Prop41ColorRGB
 90
        0
102
RTVSPost2010PropOp41
 70
     0
102
RTVSPost2010Prop42
 90
       50
102
RTVSPost2010PropOp42
 70
     0
102
RTVSPost2010Prop43
 90
        3
102
RTVSPost2010PropOp43
 70
     0
102
RTVSPost2010Prop44ColorIndex
 90
        5
102
RTVSPost2010Prop44ColorRGB
 90
      255
102
RTVSPost2010PropOp44
 70
     0
102
RTVSPost2010Prop45
280
     0
102
RTVSPost2010PropOp45
 70
     0
102
RTVSPost2010Prop46
 90
       50
102
RTVSPost2010PropOp46
 70
     0
102
RTVSPost2010Prop47
 90
       50
102
RTVSPost2010PropOp47
 70
     0
102
RTVSPost2010Prop48
 90
       50
102
RTVSPost2010PropOp48
 70
     0
102
RTVSPost2010Prop49
280
     0
102
RTVSPost2010PropOp49
 70
     0
102
RTVSPost2010Prop50
 90
       50
102
RTVSPost2010PropOp50
 70
     0
102
RTVSPost2010Prop51ColorIndex
 90
      256
102
RTVSPost2010Prop51ColorRGB
 90
-16777216
102
RTVSPost2010PropOp51
 70
     0
102
RTVSPost2010Prop52
140
1.0
102
RTVSPost2010PropOp52
 70
     0
102
RTVSPost2010Prop53
 90
        2
102
RTVSPost2010PropOp53
 70
     0
102
RTVSPost2010Prop54
  1
strokes_ogs.tif
102
RTVSPost2010PropOp54
 70
     0
102
RTVSPost2010Prop55
280
     0
102
RTVSPost2010PropOp55
 70
     0
102
RTVSPost2010Prop56
140
1.0
102
RTVSPost2010PropOp56
 70
     0
102
RTVSPost2010Prop57
140
1.0
102
RTVSPost2010PropOp57
 70
     0
102
RTVSPropertyOp0
 70
     0
102
RTVSPropertyOp1
 70
     0
102
RTVSPropertyOp2
 70
     0
102
RTVSPropertyOp3
 70
     0
102
RTVSPropertyOp4
 70
     0
102
RTVSPropertyOp5
 70
     0
102
RTVSPropertyOp6
 70
     0
102
RTVSPropertyOp7
 70
     0
102
RTVSPropertyOp8
 70
     0
102
RTVSPropertyOp9
 70
     0
102
RTVSPropertyOp10
 70
     0
102
RTVSPropertyOp11
 70
     0
102
RTVSPropertyOp12
 70
     0
102
RTVSPropertyOp13
 70
     0
102
RTVSPropertyOp14
 70
     2
102
RTVSPropertyOp15
 70
     0
102
RTVSPropertyOp16
 70
     0
102
RTVSPropertyOp17
 70
     0
102
RTVSPropertyOp18
 70
     0
102
RTVSPropertyOp19
 70
     0
102
RTVSPropertyOp20
 70
     0
102
RTVSPropertyOp21
 70
     0
102
RTVSPropertyOp22
 70
     0
102
RTVSPropertyOp23
 70
     0
102
RTVSPropertyOp24
 70
     0
102
RTVSPropertyOp25
 70
     0
102
RTVSPropertyOp26
 70
     0
102
RTVSPropertyOp27
 70
     0
102
RTVSPropertyOp28
 70
     0
102
RTVSPropertyOp29
 70
     0
102
RTVSPropertyOp30
 70
     0
102
RTVSPropertyOp31
 70
     0
102
RTVSPropertyOp32
 70
     0
102
RTVSPropertyOp33
 70
     0
102
RTVSPropertyOp34
 70
     0
102
RTVSPropertyOp35
 70
     0
102
RTVSPropertyOp36
 70
     0
102
RTVSPropertyOp37
 70
     0
102
RTVSPropertyOp38
 70
     0
102
RTVSPropertyOp39
 70
     0
102
RTVSPropertyOp40
 70
     0
102
RTVSPropertyOp41
 70
     0
102
RTVSPropertyOp42
 70
     0
102
RTVSPropertyOp43
 70
     0
102
RTVSPropertyOp44
 70
     0
102
RTVSPropertyOp45
 70
     0
102
RTVSPropertyOp46
 70
     0
102
RTVSPropertyOp47
 70
     0
102
RTVSPropertyOp48
 70
     0
102
RTVSPropertyOp49
 70
     0
102
RTVSPropertyOp50
 70
     0
102
RTVSPropertyOp51
 70
     0
102
RTVSPropertyOp52
 70
     0
102
RTVSPropertyOp53
 70
     0
102
RTVSPropertyOp54
 70
     0
102
RTVSPropertyOp55
 70
     0
102
RTVSPropertyOp56
 70
     0
102
RTVSPropertyOp57
 70
     0
102
RTVSPropertyOp58
 70
     1
102
RTVSPropertyOp59
 70
     1
102
RTVSPropertyOp60
 70
     1
102
RTVSPropertyOp61
 70
     1
102
RTVSPropertyOp62
 70
     1
  0
XRECORD
  5
4BF9
102
{ACAD_REACTORS
330
4BF8
102
}
330
4BF8
100
AcDbXrecord
280
     1
102
RTVSPost2010Prop28
280
     0
102
RTVSPost2010PropOp28
 70
     1
102
RTVSPost2010Prop29
280
     1
102
RTVSPost2010PropOp29
 70
     1
102
RTVSPost2010Prop30
280
     1
102
RTVSPost2010PropOp30
 70
     1
102
RTVSPost2010Prop31
280
     0
102
RTVSPost2010PropOp31
 70
     1
102
RTVSPost2010Prop32
280
     0
102
RTVSPost2010PropOp32
 70
     1
102
RTVSPost2010Prop33
280
     0
102
RTVSPost2010PropOp33
 70
     1
102
RTVSPost2010Prop34
280
     0
102
RTVSPost2010PropOp34
 70
     1
102
RTVSPost2010Prop35
280
     0
102
RTVSPost2010PropOp35
 70
     1
102
RTVSPost2010Prop36
280
     0
102
RTVSPost2010PropOp36
 70
     1
102
RTVSPost2010Prop37
 90
       50
102
RTVSPost2010PropOp37
 70
     1
102
RTVSPost2010Prop38
140
0.0
102
RTVSPost2010PropOp38
 70
     1
102
RTVSPost2010Prop39
140
1.0
102
RTVSPost2010PropOp39
 70
     1
102
RTVSPost2010Prop40
 90
        0
102
RTVSPost2010PropOp40
 70
     1
102
RTVSPost2010Prop41ColorIndex
 90
       18
102
RTVSPost2010Prop41ColorRGB
 90
        0
102
RTVSPost2010PropOp41
 70
     1
102
RTVSPost2010Prop42
 90
       50
102
RTVSPost2010PropOp42
 70
     1
102
RTVSPost2010Prop43
 90
        3
102
RTVSPost2010PropOp43
 70
     1
102
RTVSPost2010Prop44ColorIndex
 90
        5
102
RTVSPost2010Prop44ColorRGB
 90
      255
102
RTVSPost2010PropOp44
 70
     1
102
RTVSPost2010Prop45
280
     0
102
RTVSPost2010PropOp45
 70
     1
102
RTVSPost2010Prop46
 90
       50
102
RTVSPost2010PropOp46
 70
     1
102
RTVSPost2010Prop47
 90
       50
102
RTVSPost2010PropOp47
 70
     1
102
RTVSPost2010Prop48
 90
       50
102
RTVSPost2010PropOp48
 70
     1
102
RTVSPost2010Prop49
280
     0
102
RTVSPost2010PropOp49
 70
     1
102
RTVSPost2010Prop50
 90
       50
102
RTVSPost2010PropOp50
 70
     1
102
RTVSPost2010Prop51ColorIndex
 90
      256
102
RTVSPost2010Prop51ColorRGB
 90
-16777216
102
RTVSPost2010PropOp51
 70
     0
102
RTVSPost2010Prop52
140
1.0
102
RTVSPost2010PropOp52
 70
     0
102
RTVSPost2010Prop53
 90
        2
102
RTVSPost2010PropOp53
 70
     1
102
RTVSPost2010Prop54
  1
strokes_ogs.tif
102
RTVSPost2010PropOp54
 70
     1
102
RTVSPost2010Prop55
280
     0
102
RTVSPost2010PropOp55
 70
     1
102
RTVSPost2010Prop56
140
1.0
102
RTVSPost2010PropOp56
 70
     1
102
RTVSPost2010Prop57
140
1.0
102
RTVSPost2010PropOp57
 70
     1
102
RTVSPropertyOp0
 70
     1
102
RTVSPropertyOp1
 70
     1
102
RTVSPropertyOp2
 70
     1
102
RTVSPropertyOp3
 70
     1
102
RTVSPropertyOp4
 70
     1
102
RTVSPropertyOp5
 70
     1
102
RTVSPropertyOp6
 70
     1
102
RTVSPropertyOp7
 70
     1
102
RTVSPropertyOp8
 70
     1
102
RTVSPropertyOp9
 70
     1
102
RTVSPropertyOp10
 70
     1
102
RTVSPropertyOp11
 70
     1
102
RTVSPropertyOp12
 70
     1
102
RTVSPropertyOp13
 70
     1
102
RTVSPropertyOp14
 70
     1
102
RTVSPropertyOp15
 70
     1
102
RTVSPropertyOp16
 70
     1
102
RTVSPropertyOp17
 70
     1
102
RTVSPropertyOp18
 70
     1
102
RTVSPropertyOp19
 70
     1
102
RTVSPropertyOp20
 70
     1
102
RTVSPropertyOp21
 70
     1
102
RTVSPropertyOp22
 70
     1
102
RTVSPropertyOp23
 70
     1
102
RTVSPropertyOp24
 70
     1
102
RTVSPropertyOp25
 70
     1
102
RTVSPropertyOp26
 70
     1
102
RTVSPropertyOp27
 70
     1
102
RTVSPropertyOp28
 70
     1
102
RTVSPropertyOp29
 70
     1
102
RTVSPropertyOp30
 70
     1
102
RTVSPropertyOp31
 70
     1
102
RTVSPropertyOp32
 70
     1
102
RTVSPropertyOp33
 70
     1
102
RTVSPropertyOp34
 70
     1
102
RTVSPropertyOp35
 70
     1
102
RTVSPropertyOp36
 70
     1
102
RTVSPropertyOp37
 70
     1
102
RTVSPropertyOp38
 70
     1
102
RTVSPropertyOp39
 70
     1
102
RTVSPropertyOp40
 70
     1
102
RTVSPropertyOp41
 70
     1
102
RTVSPropertyOp42
 70
     1
102
RTVSPropertyOp43
 70
     1
102
RTVSPropertyOp44
 70
     1
102
RTVSPropertyOp45
 70
     1
102
RTVSPropertyOp46
 70
     1
102
RTVSPropertyOp47
 70
     1
102
RTVSPropertyOp48
 70
     1
102
RTVSPropertyOp49
 70
     1
102
RTVSPropertyOp50
 70
     1
102
RTVSPropertyOp51
 70
     0
102
RTVSPropertyOp52
 70
     0
102
RTVSPropertyOp53
 70
     1
102
RTVSPropertyOp54
 70
     1
102
RTVSPropertyOp55
 70
     1
102
RTVSPropertyOp56
 70
     1
102
RTVSPropertyOp57
 70
     1
102
RTVSPropertyOp58
 70
     1
102
RTVSPropertyOp59
 70
     1
102
RTVSPropertyOp60
 70
     1
102
RTVSPropertyOp61
 70
     1
102
RTVSPropertyOp62
 70
     1
  0
XRECORD
  5
4C0F
102
{ACAD_REACTORS
330
4C0E
102
}
330
4C0E
100
AcDbXrecord
280
     1
102
RTVSPost2010Prop28
280
     0
102
RTVSPost2010PropOp28
 70
     0
102
RTVSPost2010Prop29
280
     1
102
RTVSPost2010PropOp29
 70
     0
102
RTVSPost2010Prop30
280
     1
102
RTVSPost2010PropOp30
 70
     0
102
RTVSPost2010Prop31
280
     0
102
RTVSPost2010PropOp31
 70
     0
102
RTVSPost2010Prop32
280
     0
102
RTVSPost2010PropOp32
 70
     0
102
RTVSPost2010Prop33
280
     0
102
RTVSPost2010PropOp33
 70
     0
102
RTVSPost2010Prop34
280
     0
102
RTVSPost2010PropOp34
 70
     0
102
RTVSPost2010Prop35
280
     0
102
RTVSPost2010PropOp35
 70
     0
102
RTVSPost2010Prop36
280
     0
102
RTVSPost2010PropOp36
 70
     0
102
RTVSPost2010Prop37
 90
       50
102
RTVSPost2010PropOp37
 70
     0
102
RTVSPost2010Prop38
140
0.0
102
RTVSPost2010PropOp38
 70
     0
102
RTVSPost2010Prop39
140
1.0
102
RTVSPost2010PropOp39
 70
     0
102
RTVSPost2010Prop40
 90
        0
102
RTVSPost2010PropOp40
 70
     0
102
RTVSPost2010Prop41ColorIndex
 90
       18
102
RTVSPost2010Prop41ColorRGB
 90
        0
102
RTVSPost2010PropOp41
 70
     0
102
RTVSPost2010Prop42
 90
       50
102
RTVSPost2010PropOp42
 70
     0
102
RTVSPost2010Prop43
 90
        3
102
RTVSPost2010PropOp43
 70
     0
102
RTVSPost2010Prop44ColorIndex
 90
        5
102
RTVSPost2010Prop44ColorRGB
 90
      255
102
RTVSPost2010PropOp44
 70
     0
102
RTVSPost2010Prop45
280
     0
102
RTVSPost2010PropOp45
 70
     0
102
RTVSPost2010Prop46
 90
       50
102
RTVSPost2010PropOp46
 70
     0
102
RTVSPost2010Prop47
 90
       50
102
RTVSPost2010PropOp47
 70
     0
102
RTVSPost2010Prop48
 90
       50
102
RTVSPost2010PropOp48
 70
     0
102
RTVSPost2010Prop49
280
     0
102
RTVSPost2010PropOp49
 70
     0
102
RTVSPost2010Prop50
 90
       50
102
RTVSPost2010PropOp50
 70
     0
102
RTVSPost2010Prop51ColorIndex
 90
      256
102
RTVSPost2010Prop51ColorRGB
 90
-16777216
102
RTVSPost2010PropOp51
 70
     0
102
RTVSPost2010Prop52
140
1.0
102
RTVSPost2010PropOp52
 70
     0
102
RTVSPost2010Prop53
 90
        2
102
RTVSPost2010PropOp53
 70
     0
102
RTVSPost2010Prop54
  1
strokes_ogs.tif
102
RTVSPost2010PropOp54
 70
     0
102
RTVSPost2010Prop55
280
     0
102
RTVSPost2010PropOp55
 70
     0
102
RTVSPost2010Prop56
140
1.0
102
RTVSPost2010PropOp56
 70
     0
102
RTVSPost2010Prop57
140
1.0
102
RTVSPost2010PropOp57
 70
     0
102
RTVSPropertyOp0
 70
     0
102
RTVSPropertyOp1
 70
     0
102
RTVSPropertyOp2
 70
     0
102
RTVSPropertyOp3
 70
     0
102
RTVSPropertyOp4
 70
     0
102
RTVSPropertyOp5
 70
     0
102
RTVSPropertyOp6
 70
     0
102
RTVSPropertyOp7
 70
     0
102
RTVSPropertyOp8
 70
     0
102
RTVSPropertyOp9
 70
     0
102
RTVSPropertyOp10
 70
     0
102
RTVSPropertyOp11
 70
     0
102
RTVSPropertyOp12
 70
     0
102
RTVSPropertyOp13
 70
     0
102
RTVSPropertyOp14
 70
     2
102
RTVSPropertyOp15
 70
     0
102
RTVSPropertyOp16
 70
     0
102
RTVSPropertyOp17
 70
     0
102
RTVSPropertyOp18
 70
     0
102
RTVSPropertyOp19
 70
     0
102
RTVSPropertyOp20
 70
     0
102
RTVSPropertyOp21
 70
     0
102
RTVSPropertyOp22
 70
     0
102
RTVSPropertyOp23
 70
     0
102
RTVSPropertyOp24
 70
     0
102
RTVSPropertyOp25
 70
     0
102
RTVSPropertyOp26
 70
     0
102
RTVSPropertyOp27
 70
     0
102
RTVSPropertyOp28
 70
     0
102
RTVSPropertyOp29
 70
     0
102
RTVSPropertyOp30
 70
     0
102
RTVSPropertyOp31
 70
     0
102
RTVSPropertyOp32
 70
     0
102
RTVSPropertyOp33
 70
     0
102
RTVSPropertyOp34
 70
     0
102
RTVSPropertyOp35
 70
     0
102
RTVSPropertyOp36
 70
     0
102
RTVSPropertyOp37
 70
     0
102
RTVSPropertyOp38
 70
     0
102
RTVSPropertyOp39
 70
     0
102
RTVSPropertyOp40
 70
     0
102
RTVSPropertyOp41
 70
     0
102
RTVSPropertyOp42
 70
     0
102
RTVSPropertyOp43
 70
     0
102
RTVSPropertyOp44
 70
     0
102
RTVSPropertyOp45
 70
     0
102
RTVSPropertyOp46
 70
     0
102
RTVSPropertyOp47
 70
     0
102
RTVSPropertyOp48
 70
     0
102
RTVSPropertyOp49
 70
     0
102
RTVSPropertyOp50
 70
     0
102
RTVSPropertyOp51
 70
     0
102
RTVSPropertyOp52
 70
     0
102
RTVSPropertyOp53
 70
     0
102
RTVSPropertyOp54
 70
     0
102
RTVSPropertyOp55
 70
     0
102
RTVSPropertyOp56
 70
     0
102
RTVSPropertyOp57
 70
     0
102
RTVSPropertyOp58
 70
     1
102
RTVSPropertyOp59
 70
     1
102
RTVSPropertyOp60
 70
     1
102
RTVSPropertyOp61
 70
     1
102
RTVSPropertyOp62
 70
     1
  0
XRECORD
  5
4BF1
102
{ACAD_REACTORS
330
4BF0
102
}
330
4BF0
100
AcDbXrecord
280
     1
102
RTVSPost2010Prop28
280
     0
102
RTVSPost2010PropOp28
 70
     1
102
RTVSPost2010Prop29
280
     1
102
RTVSPost2010PropOp29
 70
     1
102
RTVSPost2010Prop30
280
     1
102
RTVSPost2010PropOp30
 70
     1
102
RTVSPost2010Prop31
280
     0
102
RTVSPost2010PropOp31
 70
     1
102
RTVSPost2010Prop32
280
     0
102
RTVSPost2010PropOp32
 70
     1
102
RTVSPost2010Prop33
280
     0
102
RTVSPost2010PropOp33
 70
     1
102
RTVSPost2010Prop34
280
     0
102
RTVSPost2010PropOp34
 70
     1
102
RTVSPost2010Prop35
280
     0
102
RTVSPost2010PropOp35
 70
     1
102
RTVSPost2010Prop36
280
     0
102
RTVSPost2010PropOp36
 70
     1
102
RTVSPost2010Prop37
 90
       50
102
RTVSPost2010PropOp37
 70
     1
102
RTVSPost2010Prop38
140
0.0
102
RTVSPost2010PropOp38
 70
     1
102
RTVSPost2010Prop39
140
1.0
102
RTVSPost2010PropOp39
 70
     1
102
RTVSPost2010Prop40
 90
        0
102
RTVSPost2010PropOp40
 70
     1
102
RTVSPost2010Prop41ColorIndex
 90
       18
102
RTVSPost2010Prop41ColorRGB
 90
        0
102
RTVSPost2010PropOp41
 70
     1
102
RTVSPost2010Prop42
 90
       50
102
RTVSPost2010PropOp42
 70
     1
102
RTVSPost2010Prop43
 90
        3
102
RTVSPost2010PropOp43
 70
     1
102
RTVSPost2010Prop44ColorIndex
 90
        5
102
RTVSPost2010Prop44ColorRGB
 90
      255
102
RTVSPost2010PropOp44
 70
     1
102
RTVSPost2010Prop45
280
     0
102
RTVSPost2010PropOp45
 70
     1
102
RTVSPost2010Prop46
 90
       50
102
RTVSPost2010PropOp46
 70
     1
102
RTVSPost2010Prop47
 90
       50
102
RTVSPost2010PropOp47
 70
     1
102
RTVSPost2010Prop48
 90
       50
102
RTVSPost2010PropOp48
 70
     1
102
RTVSPost2010Prop49
280
     0
102
RTVSPost2010PropOp49
 70
     1
102
RTVSPost2010Prop50
 90
       50
102
RTVSPost2010PropOp50
 70
     1
102
RTVSPost2010Prop51ColorIndex
 90
      256
102
RTVSPost2010Prop51ColorRGB
 90
-16777216
102
RTVSPost2010PropOp51
 70
     0
102
RTVSPost2010Prop52
140
1.0
102
RTVSPost2010PropOp52
 70
     0
102
RTVSPost2010Prop53
 90
        2
102
RTVSPost2010PropOp53
 70
     1
102
RTVSPost2010Prop54
  1
strokes_ogs.tif
102
RTVSPost2010PropOp54
 70
     1
102
RTVSPost2010Prop55
280
     0
102
RTVSPost2010PropOp55
 70
     1
102
RTVSPost2010Prop56
140
1.0
102
RTVSPost2010PropOp56
 70
     1
102
RTVSPost2010Prop57
140
1.0
102
RTVSPost2010PropOp57
 70
     1
102
RTVSPropertyOp0
 70
     1
102
RTVSPropertyOp1
 70
     1
102
RTVSPropertyOp2
 70
     1
102
RTVSPropertyOp3
 70
     1
102
RTVSPropertyOp4
 70
     1
102
RTVSPropertyOp5
 70
     1
102
RTVSPropertyOp6
 70
     1
102
RTVSPropertyOp7
 70
     1
102
RTVSPropertyOp8
 70
     1
102
RTVSPropertyOp9
 70
     1
102
RTVSPropertyOp10
 70
     1
102
RTVSPropertyOp11
 70
     1
102
RTVSPropertyOp12
 70
     1
102
RTVSPropertyOp13
 70
     1
102
RTVSPropertyOp14
 70
     1
102
RTVSPropertyOp15
 70
     1
102
RTVSPropertyOp16
 70
     1
102
RTVSPropertyOp17
 70
     1
102
RTVSPropertyOp18
 70
     1
102
RTVSPropertyOp19
 70
     1
102
RTVSPropertyOp20
 70
     1
102
RTVSPropertyOp21
 70
     1
102
RTVSPropertyOp22
 70
     1
102
RTVSPropertyOp23
 70
     1
102
RTVSPropertyOp24
 70
     1
102
RTVSPropertyOp25
 70
     1
102
RTVSPropertyOp26
 70
     1
102
RTVSPropertyOp27
 70
     1
102
RTVSPropertyOp28
 70
     1
102
RTVSPropertyOp29
 70
     1
102
RTVSPropertyOp30
 70
     1
102
RTVSPropertyOp31
 70
     1
102
RTVSPropertyOp32
 70
     1
102
RTVSPropertyOp33
 70
     1
102
RTVSPropertyOp34
 70
     1
102
RTVSPropertyOp35
 70
     1
102
RTVSPropertyOp36
 70
     1
102
RTVSPropertyOp37
 70
     1
102
RTVSPropertyOp38
 70
     1
102
RTVSPropertyOp39
 70
     1
102
RTVSPropertyOp40
 70
     1
102
RTVSPropertyOp41
 70
     1
102
RTVSPropertyOp42
 70
     1
102
RTVSPropertyOp43
 70
     1
102
RTVSPropertyOp44
 70
     1
102
RTVSPropertyOp45
 70
     1
102
RTVSPropertyOp46
 70
     1
102
RTVSPropertyOp47
 70
     1
102
RTVSPropertyOp48
 70
     1
102
RTVSPropertyOp49
 70
     1
102
RTVSPropertyOp50
 70
     1
102
RTVSPropertyOp51
 70
     0
102
RTVSPropertyOp52
 70
     0
102
RTVSPropertyOp53
 70
     1
102
RTVSPropertyOp54
 70
     1
102
RTVSPropertyOp55
 70
     1
102
RTVSPropertyOp56
 70
     1
102
RTVSPropertyOp57
 70
     1
102
RTVSPropertyOp58
 70
     1
102
RTVSPropertyOp59
 70
     1
102
RTVSPropertyOp60
 70
     1
102
RTVSPropertyOp61
 70
     1
102
RTVSPropertyOp62
 70
     1
  0
XRECORD
  5
4C0B
102
{ACAD_REACTORS
330
4C0A
102
}
330
4C0A
100
AcDbXrecord
280
     1
102
RTVSPost2010Prop28
280
     0
102
RTVSPost2010PropOp28
 70
     1
102
RTVSPost2010Prop29
280
     1
102
RTVSPost2010PropOp29
 70
     1
102
RTVSPost2010Prop30
280
     1
102
RTVSPost2010PropOp30
 70
     1
102
RTVSPost2010Prop31
280
     0
102
RTVSPost2010PropOp31
 70
     1
102
RTVSPost2010Prop32
280
     0
102
RTVSPost2010PropOp32
 70
     1
102
RTVSPost2010Prop33
280
     0
102
RTVSPost2010PropOp33
 70
     1
102
RTVSPost2010Prop34
280
     0
102
RTVSPost2010PropOp34
 70
     1
102
RTVSPost2010Prop35
280
     0
102
RTVSPost2010PropOp35
 70
     1
102
RTVSPost2010Prop36
280
     0
102
RTVSPost2010PropOp36
 70
     1
102
RTVSPost2010Prop37
 90
       50
102
RTVSPost2010PropOp37
 70
     1
102
RTVSPost2010Prop38
140
0.0
102
RTVSPost2010PropOp38
 70
     1
102
RTVSPost2010Prop39
140
1.0
102
RTVSPost2010PropOp39
 70
     1
102
RTVSPost2010Prop40
 90
        0
102
RTVSPost2010PropOp40
 70
     1
102
RTVSPost2010Prop41ColorIndex
 90
       18
102
RTVSPost2010Prop41ColorRGB
 90
        0
102
RTVSPost2010PropOp41
 70
     1
102
RTVSPost2010Prop42
 90
       50
102
RTVSPost2010PropOp42
 70
     1
102
RTVSPost2010Prop43
 90
        3
102
RTVSPost2010PropOp43
 70
     1
102
RTVSPost2010Prop44ColorIndex
 90
        5
102
RTVSPost2010Prop44ColorRGB
 90
      255
102
RTVSPost2010PropOp44
 70
     1
102
RTVSPost2010Prop45
280
     0
102
RTVSPost2010PropOp45
 70
     1
102
RTVSPost2010Prop46
 90
       50
102
RTVSPost2010PropOp46
 70
     1
102
RTVSPost2010Prop47
 90
       50
102
RTVSPost2010PropOp47
 70
     1
102
RTVSPost2010Prop48
 90
       50
102
RTVSPost2010PropOp48
 70
     1
102
RTVSPost2010Prop49
280
     0
102
RTVSPost2010PropOp49
 70
     1
102
RTVSPost2010Prop50
 90
       50
102
RTVSPost2010PropOp50
 70
     1
102
RTVSPost2010Prop51ColorIndex
 90
      256
102
RTVSPost2010Prop51ColorRGB
 90
-16777216
102
RTVSPost2010PropOp51
 70
     0
102
RTVSPost2010Prop52
140
1.0
102
RTVSPost2010PropOp52
 70
     0
102
RTVSPost2010Prop53
 90
        2
102
RTVSPost2010PropOp53
 70
     1
102
RTVSPost2010Prop54
  1
strokes_ogs.tif
102
RTVSPost2010PropOp54
 70
     1
102
RTVSPost2010Prop55
280
     0
102
RTVSPost2010PropOp55
 70
     1
102
RTVSPost2010Prop56
140
1.0
102
RTVSPost2010PropOp56
 70
     1
102
RTVSPost2010Prop57
140
1.0
102
RTVSPost2010PropOp57
 70
     1
102
RTVSPropertyOp0
 70
     1
102
RTVSPropertyOp1
 70
     1
102
RTVSPropertyOp2
 70
     1
102
RTVSPropertyOp3
 70
     1
102
RTVSPropertyOp4
 70
     1
102
RTVSPropertyOp5
 70
     1
102
RTVSPropertyOp6
 70
     1
102
RTVSPropertyOp7
 70
     1
102
RTVSPropertyOp8
 70
     1
102
RTVSPropertyOp9
 70
     1
102
RTVSPropertyOp10
 70
     1
102
RTVSPropertyOp11
 70
     1
102
RTVSPropertyOp12
 70
     1
102
RTVSPropertyOp13
 70
     1
102
RTVSPropertyOp14
 70
     1
102
RTVSPropertyOp15
 70
     1
102
RTVSPropertyOp16
 70
     1
102
RTVSPropertyOp17
 70
     1
102
RTVSPropertyOp18
 70
     1
102
RTVSPropertyOp19
 70
     1
102
RTVSPropertyOp20
 70
     1
102
RTVSPropertyOp21
 70
     1
102
RTVSPropertyOp22
 70
     1
102
RTVSPropertyOp23
 70
     1
102
RTVSPropertyOp24
 70
     1
102
RTVSPropertyOp25
 70
     1
102
RTVSPropertyOp26
 70
     1
102
RTVSPropertyOp27
 70
     1
102
RTVSPropertyOp28
 70
     1
102
RTVSPropertyOp29
 70
     1
102
RTVSPropertyOp30
 70
     1
102
RTVSPropertyOp31
 70
     1
102
RTVSPropertyOp32
 70
     1
102
RTVSPropertyOp33
 70
     1
102
RTVSPropertyOp34
 70
     1
102
RTVSPropertyOp35
 70
     1
102
RTVSPropertyOp36
 70
     1
102
RTVSPropertyOp37
 70
     1
102
RTVSPropertyOp38
 70
     1
102
RTVSPropertyOp39
 70
     1
102
RTVSPropertyOp40
 70
     1
102
RTVSPropertyOp41
 70
     1
102
RTVSPropertyOp42
 70
     1
102
RTVSPropertyOp43
 70
     1
102
RTVSPropertyOp44
 70
     1
102
RTVSPropertyOp45
 70
     1
102
RTVSPropertyOp46
 70
     1
102
RTVSPropertyOp47
 70
     1
102
RTVSPropertyOp48
 70
     1
102
RTVSPropertyOp49
 70
     1
102
RTVSPropertyOp50
 70
     1
102
RTVSPropertyOp51
 70
     0
102
RTVSPropertyOp52
 70
     0
102
RTVSPropertyOp53
 70
     1
102
RTVSPropertyOp54
 70
     1
102
RTVSPropertyOp55
 70
     1
102
RTVSPropertyOp56
 70
     1
102
RTVSPropertyOp57
 70
     1
102
RTVSPropertyOp58
 70
     1
102
RTVSPropertyOp59
 70
     1
102
RTVSPropertyOp60
 70
     1
102
RTVSPropertyOp61
 70
     1
102
RTVSPropertyOp62
 70
     1
  0
XRECORD
  5
4C09
102
{ACAD_REACTORS
330
4C08
102
}
330
4C08
100
AcDbXrecord
280
     1
102
RTVSPost2010Prop28
280
     0
102
RTVSPost2010PropOp28
 70
     1
102
RTVSPost2010Prop29
280
     1
102
RTVSPost2010PropOp29
 70
     1
102
RTVSPost2010Prop30
280
     1
102
RTVSPost2010PropOp30
 70
     1
102
RTVSPost2010Prop31
280
     0
102
RTVSPost2010PropOp31
 70
     1
102
RTVSPost2010Prop32
280
     0
102
RTVSPost2010PropOp32
 70
     1
102
RTVSPost2010Prop33
280
     0
102
RTVSPost2010PropOp33
 70
     1
102
RTVSPost2010Prop34
280
     0
102
RTVSPost2010PropOp34
 70
     1
102
RTVSPost2010Prop35
280
     0
102
RTVSPost2010PropOp35
 70
     1
102
RTVSPost2010Prop36
280
     0
102
RTVSPost2010PropOp36
 70
     1
102
RTVSPost2010Prop37
 90
       50
102
RTVSPost2010PropOp37
 70
     1
102
RTVSPost2010Prop38
140
0.0
102
RTVSPost2010PropOp38
 70
     1
102
RTVSPost2010Prop39
140
1.0
102
RTVSPost2010PropOp39
 70
     1
102
RTVSPost2010Prop40
 90
        0
102
RTVSPost2010PropOp40
 70
     1
102
RTVSPost2010Prop41ColorIndex
 90
       18
102
RTVSPost2010Prop41ColorRGB
 90
        0
102
RTVSPost2010PropOp41
 70
     1
102
RTVSPost2010Prop42
 90
       50
102
RTVSPost2010PropOp42
 70
     1
102
RTVSPost2010Prop43
 90
        3
102
RTVSPost2010PropOp43
 70
     1
102
RTVSPost2010Prop44ColorIndex
 90
        5
102
RTVSPost2010Prop44ColorRGB
 90
      255
102
RTVSPost2010PropOp44
 70
     1
102
RTVSPost2010Prop45
280
     0
102
RTVSPost2010PropOp45
 70
     1
102
RTVSPost2010Prop46
 90
       50
102
RTVSPost2010PropOp46
 70
     1
102
RTVSPost2010Prop47
 90
       50
102
RTVSPost2010PropOp47
 70
     1
102
RTVSPost2010Prop48
 90
       50
102
RTVSPost2010PropOp48
 70
     1
102
RTVSPost2010Prop49
280
     0
102
RTVSPost2010PropOp49
 70
     1
102
RTVSPost2010Prop50
 90
       50
102
RTVSPost2010PropOp50
 70
     1
102
RTVSPost2010Prop51ColorIndex
 90
      256
102
RTVSPost2010Prop51ColorRGB
 90
-16777216
102
RTVSPost2010PropOp51
 70
     0
102
RTVSPost2010Prop52
140
1.0
102
RTVSPost2010PropOp52
 70
     0
102
RTVSPost2010Prop53
 90
        2
102
RTVSPost2010PropOp53
 70
     1
102
RTVSPost2010Prop54
  1
strokes_ogs.tif
102
RTVSPost2010PropOp54
 70
     1
102
RTVSPost2010Prop55
280
     0
102
RTVSPost2010PropOp55
 70
     1
102
RTVSPost2010Prop56
140
1.0
102
RTVSPost2010PropOp56
 70
     1
102
RTVSPost2010Prop57
140
1.0
102
RTVSPost2010PropOp57
 70
     1
102
RTVSPropertyOp0
 70
     1
102
RTVSPropertyOp1
 70
     1
102
RTVSPropertyOp2
 70
     1
102
RTVSPropertyOp3
 70
     1
102
RTVSPropertyOp4
 70
     1
102
RTVSPropertyOp5
 70
     1
102
RTVSPropertyOp6
 70
     1
102
RTVSPropertyOp7
 70
     1
102
RTVSPropertyOp8
 70
     1
102
RTVSPropertyOp9
 70
     1
102
RTVSPropertyOp10
 70
     1
102
RTVSPropertyOp11
 70
     1
102
RTVSPropertyOp12
 70
     1
102
RTVSPropertyOp13
 70
     1
102
RTVSPropertyOp14
 70
     1
102
RTVSPropertyOp15
 70
     1
102
RTVSPropertyOp16
 70
     1
102
RTVSPropertyOp17
 70
     1
102
RTVSPropertyOp18
 70
     1
102
RTVSPropertyOp19
 70
     1
102
RTVSPropertyOp20
 70
     1
102
RTVSPropertyOp21
 70
     1
102
RTVSPropertyOp22
 70
     1
102
RTVSPropertyOp23
 70
     1
102
RTVSPropertyOp24
 70
     1
102
RTVSPropertyOp25
 70
     1
102
RTVSPropertyOp26
 70
     1
102
RTVSPropertyOp27
 70
     1
102
RTVSPropertyOp28
 70
     1
102
RTVSPropertyOp29
 70
     1
102
RTVSPropertyOp30
 70
     1
102
RTVSPropertyOp31
 70
     1
102
RTVSPropertyOp32
 70
     1
102
RTVSPropertyOp33
 70
     1
102
RTVSPropertyOp34
 70
     1
102
RTVSPropertyOp35
 70
     1
102
RTVSPropertyOp36
 70
     1
102
RTVSPropertyOp37
 70
     1
102
RTVSPropertyOp38
 70
     1
102
RTVSPropertyOp39
 70
     1
102
RTVSPropertyOp40
 70
     1
102
RTVSPropertyOp41
 70
     1
102
RTVSPropertyOp42
 70
     1
102
RTVSPropertyOp43
 70
     1
102
RTVSPropertyOp44
 70
     1
102
RTVSPropertyOp45
 70
     1
102
RTVSPropertyOp46
 70
     1
102
RTVSPropertyOp47
 70
     1
102
RTVSPropertyOp48
 70
     1
102
RTVSPropertyOp49
 70
     1
102
RTVSPropertyOp50
 70
     1
102
RTVSPropertyOp51
 70
     0
102
RTVSPropertyOp52
 70
     0
102
RTVSPropertyOp53
 70
     1
102
RTVSPropertyOp54
 70
     1
102
RTVSPropertyOp55
 70
     1
102
RTVSPropertyOp56
 70
     1
102
RTVSPropertyOp57
 70
     1
102
RTVSPropertyOp58
 70
     1
102
RTVSPropertyOp59
 70
     1
102
RTVSPropertyOp60
 70
     1
102
RTVSPropertyOp61
 70
     1
102
RTVSPropertyOp62
 70
     1
  0
XRECORD
  5
4C03
102
{ACAD_REACTORS
330
4C02
102
}
330
4C02
100
AcDbXrecord
280
     1
102
RTVSPost2010Prop28
280
     0
102
RTVSPost2010PropOp28
 70
     1
102
RTVSPost2010Prop29
280
     1
102
RTVSPost2010PropOp29
 70
     1
102
RTVSPost2010Prop30
280
     1
102
RTVSPost2010PropOp30
 70
     1
102
RTVSPost2010Prop31
280
     0
102
RTVSPost2010PropOp31
 70
     1
102
RTVSPost2010Prop32
280
     0
102
RTVSPost2010PropOp32
 70
     1
102
RTVSPost2010Prop33
280
     0
102
RTVSPost2010PropOp33
 70
     1
102
RTVSPost2010Prop34
280
     0
102
RTVSPost2010PropOp34
 70
     1
102
RTVSPost2010Prop35
280
     0
102
RTVSPost2010PropOp35
 70
     1
102
RTVSPost2010Prop36
280
     0
102
RTVSPost2010PropOp36
 70
     1
102
RTVSPost2010Prop37
 90
       50
102
RTVSPost2010PropOp37
 70
     1
102
RTVSPost2010Prop38
140
0.0
102
RTVSPost2010PropOp38
 70
     1
102
RTVSPost2010Prop39
140
1.0
102
RTVSPost2010PropOp39
 70
     1
102
RTVSPost2010Prop40
 90
        0
102
RTVSPost2010PropOp40
 70
     1
102
RTVSPost2010Prop41ColorIndex
 90
       18
102
RTVSPost2010Prop41ColorRGB
 90
        0
102
RTVSPost2010PropOp41
 70
     1
102
RTVSPost2010Prop42
 90
       50
102
RTVSPost2010PropOp42
 70
     1
102
RTVSPost2010Prop43
 90
        3
102
RTVSPost2010PropOp43
 70
     1
102
RTVSPost2010Prop44ColorIndex
 90
        5
102
RTVSPost2010Prop44ColorRGB
 90
      255
102
RTVSPost2010PropOp44
 70
     1
102
RTVSPost2010Prop45
280
     0
102
RTVSPost2010PropOp45
 70
     1
102
RTVSPost2010Prop46
 90
       50
102
RTVSPost2010PropOp46
 70
     1
102
RTVSPost2010Prop47
 90
       50
102
RTVSPost2010PropOp47
 70
     1
102
RTVSPost2010Prop48
 90
       50
102
RTVSPost2010PropOp48
 70
     1
102
RTVSPost2010Prop49
280
     0
102
RTVSPost2010PropOp49
 70
     1
102
RTVSPost2010Prop50
 90
       50
102
RTVSPost2010PropOp50
 70
     1
102
RTVSPost2010Prop51ColorIndex
 90
      256
102
RTVSPost2010Prop51ColorRGB
 90
-16777216
102
RTVSPost2010PropOp51
 70
     0
102
RTVSPost2010Prop52
140
1.0
102
RTVSPost2010PropOp52
 70
     0
102
RTVSPost2010Prop53
 90
        2
102
RTVSPost2010PropOp53
 70
     1
102
RTVSPost2010Prop54
  1
strokes_ogs.tif
102
RTVSPost2010PropOp54
 70
     1
102
RTVSPost2010Prop55
280
     0
102
RTVSPost2010PropOp55
 70
     1
102
RTVSPost2010Prop56
140
1.0
102
RTVSPost2010PropOp56
 70
     1
102
RTVSPost2010Prop57
140
1.0
102
RTVSPost2010PropOp57
 70
     1
102
RTVSPropertyOp0
 70
     1
102
RTVSPropertyOp1
 70
     1
102
RTVSPropertyOp2
 70
     1
102
RTVSPropertyOp3
 70
     1
102
RTVSPropertyOp4
 70
     1
102
RTVSPropertyOp5
 70
     1
102
RTVSPropertyOp6
 70
     1
102
RTVSPropertyOp7
 70
     1
102
RTVSPropertyOp8
 70
     1
102
RTVSPropertyOp9
 70
     1
102
RTVSPropertyOp10
 70
     1
102
RTVSPropertyOp11
 70
     1
102
RTVSPropertyOp12
 70
     1
102
RTVSPropertyOp13
 70
     1
102
RTVSPropertyOp14
 70
     1
102
RTVSPropertyOp15
 70
     1
102
RTVSPropertyOp16
 70
     1
102
RTVSPropertyOp17
 70
     1
102
RTVSPropertyOp18
 70
     1
102
RTVSPropertyOp19
 70
     1
102
RTVSPropertyOp20
 70
     1
102
RTVSPropertyOp21
 70
     1
102
RTVSPropertyOp22
 70
     1
102
RTVSPropertyOp23
 70
     1
102
RTVSPropertyOp24
 70
     1
102
RTVSPropertyOp25
 70
     1
102
RTVSPropertyOp26
 70
     1
102
RTVSPropertyOp27
 70
     1
102
RTVSPropertyOp28
 70
     1
102
RTVSPropertyOp29
 70
     1
102
RTVSPropertyOp30
 70
     1
102
RTVSPropertyOp31
 70
     1
102
RTVSPropertyOp32
 70
     1
102
RTVSPropertyOp33
 70
     1
102
RTVSPropertyOp34
 70
     1
102
RTVSPropertyOp35
 70
     1
102
RTVSPropertyOp36
 70
     1
102
RTVSPropertyOp37
 70
     1
102
RTVSPropertyOp38
 70
     1
102
RTVSPropertyOp39
 70
     1
102
RTVSPropertyOp40
 70
     1
102
RTVSPropertyOp41
 70
     1
102
RTVSPropertyOp42
 70
     1
102
RTVSPropertyOp43
 70
     1
102
RTVSPropertyOp44
 70
     1
102
RTVSPropertyOp45
 70
     1
102
RTVSPropertyOp46
 70
     1
102
RTVSPropertyOp47
 70
     1
102
RTVSPropertyOp48
 70
     1
102
RTVSPropertyOp49
 70
     1
102
RTVSPropertyOp50
 70
     1
102
RTVSPropertyOp51
 70
     0
102
RTVSPropertyOp52
 70
     0
102
RTVSPropertyOp53
 70
     1
102
RTVSPropertyOp54
 70
     1
102
RTVSPropertyOp55
 70
     1
102
RTVSPropertyOp56
 70
     1
102
RTVSPropertyOp57
 70
     1
102
RTVSPropertyOp58
 70
     1
102
RTVSPropertyOp59
 70
     1
102
RTVSPropertyOp60
 70
     1
102
RTVSPropertyOp61
 70
     1
102
RTVSPropertyOp62
 70
     1
  0
XRECORD
  5
4C05
102
{ACAD_REACTORS
330
4C04
102
}
330
4C04
100
AcDbXrecord
280
     1
102
RTVSPost2010Prop28
280
     0
102
RTVSPost2010PropOp28
 70
     1
102
RTVSPost2010Prop29
280
     1
102
RTVSPost2010PropOp29
 70
     1
102
RTVSPost2010Prop30
280
     1
102
RTVSPost2010PropOp30
 70
     1
102
RTVSPost2010Prop31
280
     0
102
RTVSPost2010PropOp31
 70
     1
102
RTVSPost2010Prop32
280
     0
102
RTVSPost2010PropOp32
 70
     1
102
RTVSPost2010Prop33
280
     0
102
RTVSPost2010PropOp33
 70
     1
102
RTVSPost2010Prop34
280
     0
102
RTVSPost2010PropOp34
 70
     1
102
RTVSPost2010Prop35
280
     0
102
RTVSPost2010PropOp35
 70
     1
102
RTVSPost2010Prop36
280
     0
102
RTVSPost2010PropOp36
 70
     1
102
RTVSPost2010Prop37
 90
       50
102
RTVSPost2010PropOp37
 70
     1
102
RTVSPost2010Prop38
140
0.0
102
RTVSPost2010PropOp38
 70
     1
102
RTVSPost2010Prop39
140
1.0
102
RTVSPost2010PropOp39
 70
     1
102
RTVSPost2010Prop40
 90
        0
102
RTVSPost2010PropOp40
 70
     1
102
RTVSPost2010Prop41ColorIndex
 90
       18
102
RTVSPost2010Prop41ColorRGB
 90
        0
102
RTVSPost2010PropOp41
 70
     1
102
RTVSPost2010Prop42
 90
       50
102
RTVSPost2010PropOp42
 70
     1
102
RTVSPost2010Prop43
 90
        3
102
RTVSPost2010PropOp43
 70
     1
102
RTVSPost2010Prop44ColorIndex
 90
        5
102
RTVSPost2010Prop44ColorRGB
 90
      255
102
RTVSPost2010PropOp44
 70
     1
102
RTVSPost2010Prop45
280
     0
102
RTVSPost2010PropOp45
 70
     1
102
RTVSPost2010Prop46
 90
       50
102
RTVSPost2010PropOp46
 70
     1
102
RTVSPost2010Prop47
 90
       50
102
RTVSPost2010PropOp47
 70
     1
102
RTVSPost2010Prop48
 90
       50
102
RTVSPost2010PropOp48
 70
     1
102
RTVSPost2010Prop49
280
     0
102
RTVSPost2010PropOp49
 70
     1
102
RTVSPost2010Prop50
 90
       50
102
RTVSPost2010PropOp50
 70
     1
102
RTVSPost2010Prop51ColorIndex
 90
      256
102
RTVSPost2010Prop51ColorRGB
 90
-16777216
102
RTVSPost2010PropOp51
 70
     0
102
RTVSPost2010Prop52
140
1.0
102
RTVSPost2010PropOp52
 70
     0
102
RTVSPost2010Prop53
 90
        2
102
RTVSPost2010PropOp53
 70
     1
102
RTVSPost2010Prop54
  1
strokes_ogs.tif
102
RTVSPost2010PropOp54
 70
     1
102
RTVSPost2010Prop55
280
     0
102
RTVSPost2010PropOp55
 70
     1
102
RTVSPost2010Prop56
140
1.0
102
RTVSPost2010PropOp56
 70
     1
102
RTVSPost2010Prop57
140
1.0
102
RTVSPost2010PropOp57
 70
     1
102
RTVSPropertyOp0
 70
     1
102
RTVSPropertyOp1
 70
     1
102
RTVSPropertyOp2
 70
     1
102
RTVSPropertyOp3
 70
     1
102
RTVSPropertyOp4
 70
     1
102
RTVSPropertyOp5
 70
     1
102
RTVSPropertyOp6
 70
     1
102
RTVSPropertyOp7
 70
     1
102
RTVSPropertyOp8
 70
     1
102
RTVSPropertyOp9
 70
     1
102
RTVSPropertyOp10
 70
     1
102
RTVSPropertyOp11
 70
     1
102
RTVSPropertyOp12
 70
     1
102
RTVSPropertyOp13
 70
     1
102
RTVSPropertyOp14
 70
     1
102
RTVSPropertyOp15
 70
     1
102
RTVSPropertyOp16
 70
     1
102
RTVSPropertyOp17
 70
     1
102
RTVSPropertyOp18
 70
     1
102
RTVSPropertyOp19
 70
     1
102
RTVSPropertyOp20
 70
     1
102
RTVSPropertyOp21
 70
     1
102
RTVSPropertyOp22
 70
     1
102
RTVSPropertyOp23
 70
     1
102
RTVSPropertyOp24
 70
     1
102
RTVSPropertyOp25
 70
     1
102
RTVSPropertyOp26
 70
     1
102
RTVSPropertyOp27
 70
     1
102
RTVSPropertyOp28
 70
     1
102
RTVSPropertyOp29
 70
     1
102
RTVSPropertyOp30
 70
     1
102
RTVSPropertyOp31
 70
     1
102
RTVSPropertyOp32
 70
     1
102
RTVSPropertyOp33
 70
     1
102
RTVSPropertyOp34
 70
     1
102
RTVSPropertyOp35
 70
     1
102
RTVSPropertyOp36
 70
     1
102
RTVSPropertyOp37
 70
     1
102
RTVSPropertyOp38
 70
     1
102
RTVSPropertyOp39
 70
     1
102
RTVSPropertyOp40
 70
     1
102
RTVSPropertyOp41
 70
     1
102
RTVSPropertyOp42
 70
     1
102
RTVSPropertyOp43
 70
     1
102
RTVSPropertyOp44
 70
     1
102
RTVSPropertyOp45
 70
     1
102
RTVSPropertyOp46
 70
     1
102
RTVSPropertyOp47
 70
     1
102
RTVSPropertyOp48
 70
     1
102
RTVSPropertyOp49
 70
     1
102
RTVSPropertyOp50
 70
     1
102
RTVSPropertyOp51
 70
     0
102
RTVSPropertyOp52
 70
     0
102
RTVSPropertyOp53
 70
     1
102
RTVSPropertyOp54
 70
     1
102
RTVSPropertyOp55
 70
     1
102
RTVSPropertyOp56
 70
     1
102
RTVSPropertyOp57
 70
     1
102
RTVSPropertyOp58
 70
     1
102
RTVSPropertyOp59
 70
     1
102
RTVSPropertyOp60
 70
     1
102
RTVSPropertyOp61
 70
     1
102
RTVSPropertyOp62
 70
     1
  0
XRECORD
  5
4BF7
102
{ACAD_REACTORS
330
4BF6
102
}
330
4BF6
100
AcDbXrecord
280
     1
102
RTVSPost2010Prop28
280
     0
102
RTVSPost2010PropOp28
 70
     1
102
RTVSPost2010Prop29
280
     1
102
RTVSPost2010PropOp29
 70
     1
102
RTVSPost2010Prop30
280
     1
102
RTVSPost2010PropOp30
 70
     1
102
RTVSPost2010Prop31
280
     0
102
RTVSPost2010PropOp31
 70
     1
102
RTVSPost2010Prop32
280
     0
102
RTVSPost2010PropOp32
 70
     1
102
RTVSPost2010Prop33
280
     0
102
RTVSPost2010PropOp33
 70
     1
102
RTVSPost2010Prop34
280
     0
102
RTVSPost2010PropOp34
 70
     1
102
RTVSPost2010Prop35
280
     0
102
RTVSPost2010PropOp35
 70
     1
102
RTVSPost2010Prop36
280
     0
102
RTVSPost2010PropOp36
 70
     1
102
RTVSPost2010Prop37
 90
       50
102
RTVSPost2010PropOp37
 70
     1
102
RTVSPost2010Prop38
140
0.0
102
RTVSPost2010PropOp38
 70
     1
102
RTVSPost2010Prop39
140
1.0
102
RTVSPost2010PropOp39
 70
     1
102
RTVSPost2010Prop40
 90
        0
102
RTVSPost2010PropOp40
 70
     1
102
RTVSPost2010Prop41ColorIndex
 90
       18
102
RTVSPost2010Prop41ColorRGB
 90
        0
102
RTVSPost2010PropOp41
 70
     1
102
RTVSPost2010Prop42
 90
       50
102
RTVSPost2010PropOp42
 70
     1
102
RTVSPost2010Prop43
 90
        3
102
RTVSPost2010PropOp43
 70
     1
102
RTVSPost2010Prop44ColorIndex
 90
        5
102
RTVSPost2010Prop44ColorRGB
 90
      255
102
RTVSPost2010PropOp44
 70
     1
102
RTVSPost2010Prop45
280
     0
102
RTVSPost2010PropOp45
 70
     1
102
RTVSPost2010Prop46
 90
       50
102
RTVSPost2010PropOp46
 70
     1
102
RTVSPost2010Prop47
 90
       50
102
RTVSPost2010PropOp47
 70
     1
102
RTVSPost2010Prop48
 90
       50
102
RTVSPost2010PropOp48
 70
     1
102
RTVSPost2010Prop49
280
     0
102
RTVSPost2010PropOp49
 70
     1
102
RTVSPost2010Prop50
 90
       50
102
RTVSPost2010PropOp50
 70
     1
102
RTVSPost2010Prop51ColorIndex
 90
      256
102
RTVSPost2010Prop51ColorRGB
 90
-16777216
102
RTVSPost2010PropOp51
 70
     0
102
RTVSPost2010Prop52
140
1.0
102
RTVSPost2010PropOp52
 70
     0
102
RTVSPost2010Prop53
 90
        2
102
RTVSPost2010PropOp53
 70
     1
102
RTVSPost2010Prop54
  1
strokes_ogs.tif
102
RTVSPost2010PropOp54
 70
     1
102
RTVSPost2010Prop55
280
     0
102
RTVSPost2010PropOp55
 70
     1
102
RTVSPost2010Prop56
140
1.0
102
RTVSPost2010PropOp56
 70
     1
102
RTVSPost2010Prop57
140
1.0
102
RTVSPost2010PropOp57
 70
     1
102
RTVSPropertyOp0
 70
     1
102
RTVSPropertyOp1
 70
     1
102
RTVSPropertyOp2
 70
     1
102
RTVSPropertyOp3
 70
     1
102
RTVSPropertyOp4
 70
     1
102
RTVSPropertyOp5
 70
     1
102
RTVSPropertyOp6
 70
     1
102
RTVSPropertyOp7
 70
     1
102
RTVSPropertyOp8
 70
     1
102
RTVSPropertyOp9
 70
     1
102
RTVSPropertyOp10
 70
     1
102
RTVSPropertyOp11
 70
     1
102
RTVSPropertyOp12
 70
     1
102
RTVSPropertyOp13
 70
     1
102
RTVSPropertyOp14
 70
     1
102
RTVSPropertyOp15
 70
     1
102
RTVSPropertyOp16
 70
     1
102
RTVSPropertyOp17
 70
     1
102
RTVSPropertyOp18
 70
     1
102
RTVSPropertyOp19
 70
     1
102
RTVSPropertyOp20
 70
     1
102
RTVSPropertyOp21
 70
     1
102
RTVSPropertyOp22
 70
     1
102
RTVSPropertyOp23
 70
     1
102
RTVSPropertyOp24
 70
     1
102
RTVSPropertyOp25
 70
     1
102
RTVSPropertyOp26
 70
     1
102
RTVSPropertyOp27
 70
     1
102
RTVSPropertyOp28
 70
     1
102
RTVSPropertyOp29
 70
     1
102
RTVSPropertyOp30
 70
     1
102
RTVSPropertyOp31
 70
     1
102
RTVSPropertyOp32
 70
     1
102
RTVSPropertyOp33
 70
     1
102
RTVSPropertyOp34
 70
     1
102
RTVSPropertyOp35
 70
     1
102
RTVSPropertyOp36
 70
     1
102
RTVSPropertyOp37
 70
     1
102
RTVSPropertyOp38
 70
     1
102
RTVSPropertyOp39
 70
     1
102
RTVSPropertyOp40
 70
     1
102
RTVSPropertyOp41
 70
     1
102
RTVSPropertyOp42
 70
     1
102
RTVSPropertyOp43
 70
     1
102
RTVSPropertyOp44
 70
     1
102
RTVSPropertyOp45
 70
     1
102
RTVSPropertyOp46
 70
     1
102
RTVSPropertyOp47
 70
     1
102
RTVSPropertyOp48
 70
     1
102
RTVSPropertyOp49
 70
     1
102
RTVSPropertyOp50
 70
     1
102
RTVSPropertyOp51
 70
     0
102
RTVSPropertyOp52
 70
     0
102
RTVSPropertyOp53
 70
     1
102
RTVSPropertyOp54
 70
     1
102
RTVSPropertyOp55
 70
     1
102
RTVSPropertyOp56
 70
     1
102
RTVSPropertyOp57
 70
     1
102
RTVSPropertyOp58
 70
     1
102
RTVSPropertyOp59
 70
     1
102
RTVSPropertyOp60
 70
     1
102
RTVSPropertyOp61
 70
     1
102
RTVSPropertyOp62
 70
     1
  0
XRECORD
  5
4BFF
102
{ACAD_REACTORS
330
4BFE
102
}
330
4BFE
100
AcDbXrecord
280
     1
102
RTVSPost2010Prop28
280
     0
102
RTVSPost2010PropOp28
 70
     1
102
RTVSPost2010Prop29
280
     1
102
RTVSPost2010PropOp29
 70
     1
102
RTVSPost2010Prop30
280
     1
102
RTVSPost2010PropOp30
 70
     1
102
RTVSPost2010Prop31
280
     0
102
RTVSPost2010PropOp31
 70
     1
102
RTVSPost2010Prop32
280
     0
102
RTVSPost2010PropOp32
 70
     1
102
RTVSPost2010Prop33
280
     0
102
RTVSPost2010PropOp33
 70
     1
102
RTVSPost2010Prop34
280
     0
102
RTVSPost2010PropOp34
 70
     1
102
RTVSPost2010Prop35
280
     0
102
RTVSPost2010PropOp35
 70
     1
102
RTVSPost2010Prop36
280
     0
102
RTVSPost2010PropOp36
 70
     1
102
RTVSPost2010Prop37
 90
       50
102
RTVSPost2010PropOp37
 70
     1
102
RTVSPost2010Prop38
140
0.0
102
RTVSPost2010PropOp38
 70
     1
102
RTVSPost2010Prop39
140
1.0
102
RTVSPost2010PropOp39
 70
     1
102
RTVSPost2010Prop40
 90
        0
102
RTVSPost2010PropOp40
 70
     1
102
RTVSPost2010Prop41ColorIndex
 90
       18
102
RTVSPost2010Prop41ColorRGB
 90
        0
102
RTVSPost2010PropOp41
 70
     1
102
RTVSPost2010Prop42
 90
       50
102
RTVSPost2010PropOp42
 70
     1
102
RTVSPost2010Prop43
 90
        3
102
RTVSPost2010PropOp43
 70
     1
102
RTVSPost2010Prop44ColorIndex
 90
        5
102
RTVSPost2010Prop44ColorRGB
 90
      255
102
RTVSPost2010PropOp44
 70
     1
102
RTVSPost2010Prop45
280
     0
102
RTVSPost2010PropOp45
 70
     1
102
RTVSPost2010Prop46
 90
       50
102
RTVSPost2010PropOp46
 70
     1
102
RTVSPost2010Prop47
 90
       50
102
RTVSPost2010PropOp47
 70
     1
102
RTVSPost2010Prop48
 90
       50
102
RTVSPost2010PropOp48
 70
     1
102
RTVSPost2010Prop49
280
     0
102
RTVSPost2010PropOp49
 70
     1
102
RTVSPost2010Prop50
 90
       50
102
RTVSPost2010PropOp50
 70
     1
102
RTVSPost2010Prop51ColorIndex
 90
      256
102
RTVSPost2010Prop51ColorRGB
 90
-16777216
102
RTVSPost2010PropOp51
 70
     0
102
RTVSPost2010Prop52
140
1.0
102
RTVSPost2010PropOp52
 70
     0
102
RTVSPost2010Prop53
 90
        2
102
RTVSPost2010PropOp53
 70
     1
102
RTVSPost2010Prop54
  1
strokes_ogs.tif
102
RTVSPost2010PropOp54
 70
     1
102
RTVSPost2010Prop55
280
     0
102
RTVSPost2010PropOp55
 70
     1
102
RTVSPost2010Prop56
140
1.0
102
RTVSPost2010PropOp56
 70
     1
102
RTVSPost2010Prop57
140
1.0
102
RTVSPost2010PropOp57
 70
     1
102
RTVSPropertyOp0
 70
     1
102
RTVSPropertyOp1
 70
     1
102
RTVSPropertyOp2
 70
     1
102
RTVSPropertyOp3
 70
     1
102
RTVSPropertyOp4
 70
     1
102
RTVSPropertyOp5
 70
     1
102
RTVSPropertyOp6
 70
     1
102
RTVSPropertyOp7
 70
     1
102
RTVSPropertyOp8
 70
     1
102
RTVSPropertyOp9
 70
     1
102
RTVSPropertyOp10
 70
     1
102
RTVSPropertyOp11
 70
     1
102
RTVSPropertyOp12
 70
     1
102
RTVSPropertyOp13
 70
     1
102
RTVSPropertyOp14
 70
     1
102
RTVSPropertyOp15
 70
     1
102
RTVSPropertyOp16
 70
     1
102
RTVSPropertyOp17
 70
     1
102
RTVSPropertyOp18
 70
     1
102
RTVSPropertyOp19
 70
     1
102
RTVSPropertyOp20
 70
     1
102
RTVSPropertyOp21
 70
     1
102
RTVSPropertyOp22
 70
     1
102
RTVSPropertyOp23
 70
     1
102
RTVSPropertyOp24
 70
     1
102
RTVSPropertyOp25
 70
     1
102
RTVSPropertyOp26
 70
     1
102
RTVSPropertyOp27
 70
     1
102
RTVSPropertyOp28
 70
     1
102
RTVSPropertyOp29
 70
     1
102
RTVSPropertyOp30
 70
     1
102
RTVSPropertyOp31
 70
     1
102
RTVSPropertyOp32
 70
     1
102
RTVSPropertyOp33
 70
     1
102
RTVSPropertyOp34
 70
     1
102
RTVSPropertyOp35
 70
     1
102
RTVSPropertyOp36
 70
     1
102
RTVSPropertyOp37
 70
     1
102
RTVSPropertyOp38
 70
     1
102
RTVSPropertyOp39
 70
     1
102
RTVSPropertyOp40
 70
     1
102
RTVSPropertyOp41
 70
     1
102
RTVSPropertyOp42
 70
     1
102
RTVSPropertyOp43
 70
     1
102
RTVSPropertyOp44
 70
     1
102
RTVSPropertyOp45
 70
     1
102
RTVSPropertyOp46
 70
     1
102
RTVSPropertyOp47
 70
     1
102
RTVSPropertyOp48
 70
     1
102
RTVSPropertyOp49
 70
     1
102
RTVSPropertyOp50
 70
     1
102
RTVSPropertyOp51
 70
     0
102
RTVSPropertyOp52
 70
     0
102
RTVSPropertyOp53
 70
     1
102
RTVSPropertyOp54
 70
     1
102
RTVSPropertyOp55
 70
     1
102
RTVSPropertyOp56
 70
     1
102
RTVSPropertyOp57
 70
     1
102
RTVSPropertyOp58
 70
     1
102
RTVSPropertyOp59
 70
     1
102
RTVSPropertyOp60
 70
     1
102
RTVSPropertyOp61
 70
     1
102
RTVSPropertyOp62
 70
     1
  0
XRECORD
  5
4C07
102
{ACAD_REACTORS
330
4C06
102
}
330
4C06
100
AcDbXrecord
280
     1
102
RTVSPost2010Prop28
280
     0
102
RTVSPost2010PropOp28
 70
     1
102
RTVSPost2010Prop29
280
     1
102
RTVSPost2010PropOp29
 70
     1
102
RTVSPost2010Prop30
280
     1
102
RTVSPost2010PropOp30
 70
     1
102
RTVSPost2010Prop31
280
     0
102
RTVSPost2010PropOp31
 70
     1
102
RTVSPost2010Prop32
280
     0
102
RTVSPost2010PropOp32
 70
     1
102
RTVSPost2010Prop33
280
     0
102
RTVSPost2010PropOp33
 70
     1
102
RTVSPost2010Prop34
280
     0
102
RTVSPost2010PropOp34
 70
     1
102
RTVSPost2010Prop35
280
     0
102
RTVSPost2010PropOp35
 70
     1
102
RTVSPost2010Prop36
280
     0
102
RTVSPost2010PropOp36
 70
     1
102
RTVSPost2010Prop37
 90
       50
102
RTVSPost2010PropOp37
 70
     1
102
RTVSPost2010Prop38
140
0.0
102
RTVSPost2010PropOp38
 70
     1
102
RTVSPost2010Prop39
140
1.0
102
RTVSPost2010PropOp39
 70
     1
102
RTVSPost2010Prop40
 90
        0
102
RTVSPost2010PropOp40
 70
     1
102
RTVSPost2010Prop41ColorIndex
 90
       18
102
RTVSPost2010Prop41ColorRGB
 90
        0
102
RTVSPost2010PropOp41
 70
     1
102
RTVSPost2010Prop42
 90
       50
102
RTVSPost2010PropOp42
 70
     1
102
RTVSPost2010Prop43
 90
        3
102
RTVSPost2010PropOp43
 70
     1
102
RTVSPost2010Prop44ColorIndex
 90
        5
102
RTVSPost2010Prop44ColorRGB
 90
      255
102
RTVSPost2010PropOp44
 70
     1
102
RTVSPost2010Prop45
280
     0
102
RTVSPost2010PropOp45
 70
     1
102
RTVSPost2010Prop46
 90
       50
102
RTVSPost2010PropOp46
 70
     1
102
RTVSPost2010Prop47
 90
       50
102
RTVSPost2010PropOp47
 70
     1
102
RTVSPost2010Prop48
 90
       50
102
RTVSPost2010PropOp48
 70
     1
102
RTVSPost2010Prop49
280
     0
102
RTVSPost2010PropOp49
 70
     1
102
RTVSPost2010Prop50
 90
       50
102
RTVSPost2010PropOp50
 70
     1
102
RTVSPost2010Prop51ColorIndex
 90
      256
102
RTVSPost2010Prop51ColorRGB
 90
-16777216
102
RTVSPost2010PropOp51
 70
     0
102
RTVSPost2010Prop52
140
1.0
102
RTVSPost2010PropOp52
 70
     0
102
RTVSPost2010Prop53
 90
        2
102
RTVSPost2010PropOp53
 70
     1
102
RTVSPost2010Prop54
  1
strokes_ogs.tif
102
RTVSPost2010PropOp54
 70
     1
102
RTVSPost2010Prop55
280
     0
102
RTVSPost2010PropOp55
 70
     1
102
RTVSPost2010Prop56
140
1.0
102
RTVSPost2010PropOp56
 70
     1
102
RTVSPost2010Prop57
140
1.0
102
RTVSPost2010PropOp57
 70
     1
102
RTVSPropertyOp0
 70
     1
102
RTVSPropertyOp1
 70
     1
102
RTVSPropertyOp2
 70
     1
102
RTVSPropertyOp3
 70
     1
102
RTVSPropertyOp4
 70
     1
102
RTVSPropertyOp5
 70
     1
102
RTVSPropertyOp6
 70
     1
102
RTVSPropertyOp7
 70
     1
102
RTVSPropertyOp8
 70
     1
102
RTVSPropertyOp9
 70
     1
102
RTVSPropertyOp10
 70
     1
102
RTVSPropertyOp11
 70
     1
102
RTVSPropertyOp12
 70
     1
102
RTVSPropertyOp13
 70
     1
102
RTVSPropertyOp14
 70
     1
102
RTVSPropertyOp15
 70
     1
102
RTVSPropertyOp16
 70
     1
102
RTVSPropertyOp17
 70
     1
102
RTVSPropertyOp18
 70
     1
102
RTVSPropertyOp19
 70
     1
102
RTVSPropertyOp20
 70
     1
102
RTVSPropertyOp21
 70
     1
102
RTVSPropertyOp22
 70
     1
102
RTVSPropertyOp23
 70
     1
102
RTVSPropertyOp24
 70
     1
102
RTVSPropertyOp25
 70
     1
102
RTVSPropertyOp26
 70
     1
102
RTVSPropertyOp27
 70
     1
102
RTVSPropertyOp28
 70
     1
102
RTVSPropertyOp29
 70
     1
102
RTVSPropertyOp30
 70
     1
102
RTVSPropertyOp31
 70
     1
102
RTVSPropertyOp32
 70
     1
102
RTVSPropertyOp33
 70
     1
102
RTVSPropertyOp34
 70
     1
102
RTVSPropertyOp35
 70
     1
102
RTVSPropertyOp36
 70
     1
102
RTVSPropertyOp37
 70
     1
102
RTVSPropertyOp38
 70
     1
102
RTVSPropertyOp39
 70
     1
102
RTVSPropertyOp40
 70
     1
102
RTVSPropertyOp41
 70
     1
102
RTVSPropertyOp42
 70
     1
102
RTVSPropertyOp43
 70
     1
102
RTVSPropertyOp44
 70
     1
102
RTVSPropertyOp45
 70
     1
102
RTVSPropertyOp46
 70
     1
102
RTVSPropertyOp47
 70
     1
102
RTVSPropertyOp48
 70
     1
102
RTVSPropertyOp49
 70
     1
102
RTVSPropertyOp50
 70
     1
102
RTVSPropertyOp51
 70
     0
102
RTVSPropertyOp52
 70
     0
102
RTVSPropertyOp53
 70
     1
102
RTVSPropertyOp54
 70
     1
102
RTVSPropertyOp55
 70
     1
102
RTVSPropertyOp56
 70
     1
102
RTVSPropertyOp57
 70
     1
102
RTVSPropertyOp58
 70
     1
102
RTVSPropertyOp59
 70
     1
102
RTVSPropertyOp60
 70
     1
102
RTVSPropertyOp61
 70
     1
102
RTVSPropertyOp62
 70
     1
  0
ENDSEC
  0
EOF
